Captain America Civil War 2016 1080p TC X264 Masteredition Hive-CM8

seeders: 0
leechers: 0
updated:
Added by Silmarillion800.61K in Movies
Torrent verified. Downloaded 1,380,029 times.

DownloadFast Safe Anonymous
movies, software, shows...
  • add Captain America: Civil War to bookmarks
  • Release date: 06 May 2016
  • Writers: Christopher Markus (screenplay), Stephen McFeely (screenplay), Mark Millar (comic book), Joe Simon (characters), Jack Kirby (characters)
  • Language: English
Summary:

Political interference in the Avengers' activities causes a rift between former allies Captain America and Iron Man.

Written by Sasidhar.32.13K
Captain America Civil War 2016 1080p TC X264 Masteredition Hive-CM8 (Size: 5.51 GB)
  Captain.America.Civil.War.2016.1080p.TC.X264.Masteredition.Hive-CM8.mkv 5.4 GB
  Captain.America.Civil.War.2016.1080p.TC.X264.Masteredition.Hive-CM8.nfo 5.41 KB
  Torrent Downloaded From ExtraTorrent.cc.txt 338 bytes
  sample_3min.mkv 112.99 MB

Description

image


http://www.imdb.com/title/tt3498820/


Political interference in the Avengers\' activities causes a rift between former allies Captain America and Iron Man.

Directors: Anthony Russo, Joe Russo
Writers: Christopher Markus (screenplay), Stephen McFeely (screenplay)
Stars: Chris Evans, Robert Downey Jr., Scarlett Johansson
Genres: Action | Adventure | Sci-Fi
Country: USA
Language: English | German | Russian | Romanian


Captain.America.Civil.War.2016.1080p.TC.X264.Masteredition.Hive-CM8

Thx Hive

CM8 Doing It Right The First Time

Sources:

Video: 1080p Chinese Telecine
Audio: Direct Line (CPG/Exclusive)
thx


Notes:
This is a special Encode which took me cpl days of work, but the result is excellent, its a masterpiece from this source.
I have encoded it in 1080p only cause this movie needs quality. looks and sounds perfect a real cinemafeeling.
Quality is tested and optimized to look perfect even on a 75" 4K TV.


Encode:
The Chinese telecine needed a lot of work,was all green again, no real colours
fixed brightness,constrast,colours,saturation,black base,white base,for all scenes
it was a pita, but totally worth it. nothing is cut from the movie btw.
comes along with bonus credits scene and the aftercredits scene

Line Audio was great, lipsynced to my video.

got very nice and will do me till retail
enjoy

PS: more Masteredition are coming!

Video: 1920x852 @bitrate 5000-8000
Audio: Line AC3 2.0 Stereo
Sample: yes included


http://www.imdb.com/title/tt3498820/


General
Complete name : Captain.America.Civil.War.2016.1080p.TC.X264.Masteredition.Hive-CM8.mkv
Format : Matroska
Format version : Version 2
File size : 5.40 GiB
Duration : 2h 27mn
Overall bit rate mode : Variable
Overall bit rate : 5 254 Kbps
Encoded date : UTC 2016-05-11 23:03:02
Writing application : mkvmerge v5.6.0 ('Kenya Kane') built on May 27 2012 16:44:04
Writing library : libebml v1.2.3 + libmatroska v1.3.0

Video
ID : 1
Format : AVC
Format/Info : Advanced Video Codec
Format profile : [email protected]
Format settings, CABAC : Yes
Format settings, ReFrames : 4 frames
Muxing mode : Header stripping
Codec ID : V_MPEG4/ISO/AVC
Duration : 2h 27mn
Bit rate mode : Variable
Bit rate : 4 893 Kbps
Maximum bit rate : 8 000 Kbps
Width : 1 920 pixels
Height : 852 pixels
Display aspect ratio : 2.25:1
Frame rate mode : Constant
Frame rate : 29.970 fps
Standard : NTSC
Color space : YUV
Chroma subsampling : 4:2:0
Bit depth : 8 bits
Scan type : Progressive
Bits/(Pixel*Frame) : 0.100
Stream size : 5.03 GiB (93%)
Language : English
Default : Yes
Forced : No
Color primaries : BT.709
Transfer characteristics : BT.709
Matrix coefficients : BT.709
Color range : Limited

Audio
ID : 2
Format : AC-3
Format/Info : Audio Coding 3
Mode extension : CM (complete main)
Format settings, Endianness : Big
Muxing mode : Header stripping
Codec ID : A_AC3
Duration : 2h 27mn
Bit rate mode : Constant
Bit rate : 256 Kbps
Channel(s) : 2 channels
Channel positions : Front: L R
Sampling rate : 48.0 KHz
Bit depth : 16 bits
Compression mode : Lossy
Delay relative to video : 18ms
Stream size : 270 MiB (5%)
Language : English
Default : Yes
Forced : No


image image image image image image image image image image image image

Related Torrents

torrent name size files age seed leech

Sharing Widget


Download torrent
5.51 GB
seeders:0
leechers:0
Captain America Civil War 2016 1080p TC X264 Masteredition Hive-CM8



To share this torrent use the code below and insert it into comments, status messages, forum posts or your signature.

Torrent: Captain America Civil War 20... X264 Masteredition Hive-CM8

Trackers

tracker name
udp://tracker.openbittorrent.com:80/announce
udp://tracker.coppersurfer.tk:6969/announce
http://tracker.aletorrenty.pl:2710/announce
udp://glotorrents.pw:6969/announce
http://tracker1.wasabii.com.tw:6969/announce
http://thetracker.org/announce
http://explodie.org:6969/announce
udp://tracker.opentrackr.org:1337/announce
udp://zer0day.ch:1337/announce
ĀµTorrent compatible trackers list

Locations

name
KickassTorrents
ExtraTorrent
Torrent hash: 8DDF2A949242FF96FC7141373F2395E96BDF4054

Top Comments

18
anonymous
Telecine is a copy of the movie from its analogical form (the movie roll) to a digital one using a special equipment. The quality of the copy is good. Actually, the same technology is used in making DVD movies. The only problem is that the piracy version is usually made after a worse copy of the original movie roll.
2
thLullaby53.75K
audio: 9video: 9

All Comments

audio
8/10
video
8/10
please, leave only comments related to that torrent
Sign In

audio: 8video: 9
thanks 4 sharing
does it have cinavia anyone?
audio: 6video: 6
mirable
audio: 7video: 7
Love Ironman...such a badass. Great movie and decent quality. Will definitely buy BL when it comes out.
Does it have the stupid Chinese subs in foreign scenes?
audio: 8video: 8
Thank you!
Show More All

User Opinions

Report a bug Open chat