12th Fail 2023 HS 1080p WEBRip x265 DDP5.1 - SP3LL

seeders: 71
leechers: 21
updated:
Added by sp3ll in Movies > Bollywood

Download Fast Safe Anonymous
movies, software, shows...
Summary:

Inspired by millions of UPSC students' lives and struggles, the story follows Manoj, who fails his 12th grade. But how he restarts his journey towards his dream of serving the country forms the crux. 12th Fail goes beyond that one exam and looks at the education system in the country while encouraging people not to give up amid failures.

Files

12th Fail 2023 HS 1080p WEBRip x265 DDP5.1 - SP3LL
  • 12th Fail 2023 HS 1080p WEBRip x265 DDP5.1 - SP3LL.mkv (3.3 GB)

Description




Release Title
12th Fail 2023 HS 1080p WEBRip x265 DDP5.1 - SP3LL



IMDB Link
https://www.imdb.com/title/tt23849204/















Quote:

General
Complete name : 12th Fail 2023 HS 1080p WEBRip x265 DDP5.1 - SP3LL.mkv
Format : Matroska
Format version : Version 4
File size : 3.33 GiB
Duration : 2 h 26 min
Overall bit rate : 3 249 kb/s
Encoded date : UTC 2023-12-31 23:44:31
Writing application : mkvmerge v74.0.0 ('You Oughta Know') 64-bit
Writing library : libebml v1.4.4 + libmatroska v1.7.1

Video
ID : 1
Format : HEVC
Format/Info : High Efficiency Video Coding
Format profile : Main [email protected]@High
Codec ID : V_MPEGH/ISO/HEVC
Duration : 2 h 26 min
Bit rate : 3 054 kb/s
Width : 1 920 pixels
Height : 800 pixels
Display aspect ratio : 2.40:1
Frame rate mode : Variable
Frame rate : 24.000 FPS
Color space : YUV
Chroma subsampling : 4:2:0
Bit depth : 10 bits
Bits/(Pixel*Frame) : 0.083
Stream size : 3.13 GiB (94%)
Default : Yes
Forced : No
Color range : Limited
Color primaries : BT.709
Transfer characteristics : BT.709
Matrix coefficients : BT.709

Audio
ID : 2
Format : E-AC-3
Format/Info : Enhanced AC-3
Commercial name : Dolby Digital Plus
Codec ID : A_EAC3
Duration : 2 h 26 min
Bit rate mode : Constant
Bit rate : 192 kb/s
Channel(s) : 6 channels
Channel layout : L R C LFE Ls Rs
Sampling rate : 48.0 kHz
Frame rate : 31.250 FPS (1536 SPF)
Compression mode : Lossy
Stream size : 202 MiB (6%)
Language : Hindi
Service kind : Complete Main
Default : Yes
Forced : No

Text
ID : 3
Format : UTF-8
Codec ID : S_TEXT/UTF8
Codec ID/Info : UTF-8 Plain Text
Duration : 2 h 19 min
Bit rate : 59 b/s
Frame rate : 0.247 FPS
Count of elements : 2072
Stream size : 60.9 KiB (0%)
Language : English
Default : No
Forced : No




Related Torrents

torrent name size uploader age seed leech
5.6 GB QxR 3
months
10 6
1.4 GB MoviesFD7 2
months
9 5
1.2 GB MoviesFD7 2
months
8 2


Download torrent
3.3 GB
seeders:71
leechers:21
12th Fail 2023 HS 1080p WEBRip x265 DDP5.1 - SP3LL


Trackers

tracker name
udp://exodus.desync.com:6969/announce
udp://tracker.opentrackr.org:1337/announce
https://inferno.demonoid.is/announce
udp://open.stealth.si:80/announce
udp://tracker.moeking.me:6969/announce
udp://p4p.arenabg.com:1337/announce
http://tracker.files.fm:6969/announce
http://vps02.net.orel.ru:80/announce
udp://fe.dealclub.de:6969/announce
http://tracker.bt4g.com:2095/announce
udp://tracker.openbittorrent.com:6969/announce
https://tracker.loligirl.cn:443/announce
udp://tracker.filemail.com:6969/announce
http://tracker.mywaifu.best:6969/announce
µTorrent compatible trackers list

Download torrent
3.3 GB
seeders:71
leechers:21
12th Fail 2023 HS 1080p WEBRip x265 DDP5.1 - SP3LL


Torrent hash: A48A9FC0CC81EF79604C5A2329293BA5835D9618