American.Horror.Stories.S02E07.1080p.WEB.H264-GGEZ

seeders: 327
leechers: 169
updated:
Added by prudence25 in TV > HD

Download Fast Safe Anonymous
movies, software, shows...

Files

American.Horror.Stories.S02E07.1080p.WEB.H264-GGEZ[rarbg]
  • RARBG.txt (0.0 KB)
  • RARBG_DO_NOT_MIRROR.exe (0.1 KB)
  • american.horror.stories.s02e07.1080p.web.h264-ggez.mkv (884.0 MB)
  • american.horror.stories.s02e07.1080p.web.h264-ggez.nfo (0.4 KB)

Description



Video
ID : 1
Format : AVC
Format/Info : Advanced Video Codec
Format profile : [email protected]
Format settings : CABAC / 4 Ref Frames
Format settings, CABAC : Yes
Format settings, Reference frames : 4 frames
Codec ID : V_MPEG4/ISO/AVC
Duration : 43 min 58 s
Bit rate : 2 498 kb/s
Width : 1 920 pixels
Height : 1 080 pixels
Display aspect ratio : 16:9
Frame rate mode : Constant
Frame rate : 23.976 (24000/1001) FPS
Color space : YUV
Chroma subsampling : 4:2:0
Bit depth : 8 bits
Scan type : Progressive
Bits/(Pixel*Frame) : 0.050
Stream size : 786 MiB (89%)
Default : Yes
Forced : No

Audio
ID : 2
Format : E-AC-3
Format/Info : Enhanced AC-3
Commercial name : Dolby Digital Plus
Codec ID : A_EAC3
Duration : 43 min 58 s
Bit rate mode : Constant
Bit rate : 256 kb/s
Channel(s) : 6 channels
Channel layout : L R C LFE Ls Rs
Sampling rate : 48.0 kHz
Frame rate : 31.250 FPS (1536 SPF)
Compression mode : Lossy
Delay relative to video : 6 ms
Stream size : 80.5 MiB (9%)
Language : English
Service kind : Complete Main
Default : Yes
Forced : No

Text
ID : 3
Format : UTF-8
Codec ID : S_TEXT/UTF8
Codec ID/Info : UTF-8 Plain Text
Title : English [SDH]
Language : English
Default : No
Forced : No



Download torrent
884 MB
seeders:327
leechers:169
American.Horror.Stories.S02E07.1080p.WEB.H264-GGEZ


Trackers

tracker name
http://tracker.trackerfix.com:80/announce
udp://9.rarbg.me:2760/announce
udp://9.rarbg.to:2790/announce
udp://tracker.slowcheetah.org:14740/announce
udp://tracker.fatkhoala.org:13760/announce
µTorrent compatible trackers list

Download torrent
884 MB
seeders:327
leechers:169
American.Horror.Stories.S02E07.1080p.WEB.H264-GGEZ


Torrent hash: 0795E4F161550F87A4F919EE9D3CD9D49B2ACA3D