Atlanta.S04E03.1080p.WEB.h264-GOSSIP

seeders: 445
leechers: 172
updated:
Added by prudence25 in TV > HD

Download Fast Safe Anonymous
movies, software, shows...

Files

Atlanta.S04E03.1080p.WEB.h264-GOSSIP[rarbg]
  • Atlanta.S04E03.1080p.WEB.h264-GOSSIP.mkv (2.7 GB)
  • RARBG.txt (0.0 KB)
  • RARBG_DO_NOT_MIRROR.exe (0.1 KB)
  • atlanta.s04e03.1080p.web.h264-gossip.nfo (0.9 KB)

Description



Code:

Video
ID : 1
Format : AVC
Format/Info : Advanced Video Codec
Format profile : [email protected]
Format settings : CABAC / 4 Ref Frames
Format settings, CABAC : Yes
Format settings, Reference frames : 4 frames
Codec ID : V_MPEG4/ISO/AVC
Duration : 31 min 43 s
Bit rate : 11.4 Mb/s
Width : 1 920 pixels
Height : 1 080 pixels
Display aspect ratio : 16:9
Frame rate mode : Constant
Frame rate : 23.976 (23976/1000) FPS
Original frame rate : 23.976 (24000/1001) FPS
Color space : YUV
Chroma subsampling : 4:2:0
Bit depth : 8 bits
Scan type : Progressive
Bits/(Pixel*Frame) : 0.229
Stream size : 2.53 GiB (95%)
Writing library : AVC Coding
Default : Yes
Forced : No
Color range : Limited
Color primaries : BT.709
Transfer characteristics : BT.709
Matrix coefficients : BT.709
VENDOR_ID : [0][0][0][0]

Audio
ID : 2
Format : E-AC-3
Format/Info : Enhanced AC-3
Commercial name : Dolby Digital Plus
Codec ID : A_EAC3
Duration : 31 min 44 s
Bit rate mode : Constant
Bit rate : 640 kb/s
Channel(s) : 6 channels
Channel layout : L R C LFE Ls Rs
Sampling rate : 48.0 kHz
Frame rate : 31.250 FPS (1536 SPF)
Bit depth : 32 bits
Compression mode : Lossy
Delay relative to video : -998 ms
Stream size : 145 MiB (5%)
Language : English
Service kind : Complete Main
Default : Yes
Forced : No
VENDOR_ID : [0][0][0][0]

Text
ID : 3
Format : UTF-8
Codec ID : S_TEXT/UTF8
Codec ID/Info : UTF-8 Plain Text
Duration : 31 min 41 s
Bit rate : 78 b/s
Count of elements : 631
Stream size : 18.2 KiB (0%)
Title : English
Language : English
Default : No
Forced : No



Download torrent
2.7 GB
seeders:445
leechers:172
Atlanta.S04E03.1080p.WEB.h264-GOSSIP


Trackers

tracker name
http://tracker.trackerfix.com:80/announce
udp://9.rarbg.me:2880/announce
udp://9.rarbg.to:2850/announce
udp://tracker.fatkhoala.org:13730/announce
udp://tracker.slowcheetah.org:14800/announce
µTorrent compatible trackers list

Download torrent
2.7 GB
seeders:445
leechers:172
Atlanta.S04E03.1080p.WEB.h264-GOSSIP


Torrent hash: F3F1F827AA1183917B291EC4C13A19B4CC0D8456