Bandslam 2009 720p Bluray x264-FSiHD[PRiME]

seeders: 1
leechers: 0
updated:
Added by sub7 in Movies > Divx/Xvid

Download Fast Safe Anonymous
movies, software, shows...
Summary:

A high school social outcast and the popular girl bond through a shared love of music.

Files

Bandslam 2009 720p Bluray x264-FSiHD[PRiME]
  • Bandslam 2009 720p Bluray x264-FSiHD[PRiME].mkv (4.4 GB)
  • Please Support!! Read More!!!.txt (0.2 KB)
  • Torrent Downloaded From 1337x.to.txt (0.1 KB)
  • Torrent Downloaded From ExtraTorrent.cc.txt (0.4 KB)

Description


Bandslam 2009 720p Bluray x264-FSiHD[PRiME]

ImDb: http://www.imdb.com/title/tt0976222



Complete name : Bandslam 2009 720p Bluray x264-FSiHD[PRiME].mkv
Format : Matroska
Format version : Version 2
File size : 4.37 GiB
Duration : 1 h 51 min
Overall bit rate : 5 617 kb/s
Encoded date : UTC 2010-01-14 21:43:10
Writing application : mkvmerge v2.9.8 ('C'est le bon') built on Aug 13 2009 12:49:06
Writing library : libebml v0.7.7 + libmatroska v0.8.1

Video
ID : 1
Format : AVC
Format/Info : Advanced Video Codec
Format profile : [email protected]
Format settings, CABAC : Yes
Format settings, ReFrames : 5 frames
Codec ID : V_MPEG4/ISO/AVC
Duration : 1 h 51 min
Bit rate : 4 980 kb/s
Width : 1 280 pixels
Height : 544 pixels
Display aspect ratio : 2.35:1
Frame rate mode : Constant
Frame rate : 23.976 FPS
Color space : YUV
Chroma subsampling : 4:2:0
Bit depth : 8 bits
Scan type : Progressive
Bits/(Pixel*Frame) : 0.298
Stream size : 3.78 GiB (87%)
Writing library : x264 core 80 r1376 3feaec2
Encoding settings : cabac=1 / ref=5 / deblock=1:0:0 / analyse=0x3:0x133 / me=umh / subme=8 / psy=1 / psy_rd=1.0:0.0 / mixed_ref=1 / me_range=16 / chroma_me=1 / trellis=1 / 8x8dct=1 / cqm=0 / deadzone=21,11 / fast_pskip=0 / chroma_qp_offset=-2 / threads=12 / sliced_threads=0 / nr=0 / decimate=1 / mbaff=0 / constrained_intra=0 / bframes=3 / b_pyramid=0 / b_adapt=1 / b_bias=0 / direct=1 / wpredb=1 / wpredp=2 / keyint=250 / keyint_min=25 / scenecut=40 / rc_lookahead=40 / rc=2pass / mbtree=1 / bitrate=4980 / ratetol=1.0 / qcomp=0.60 / qpmin=10 / qpmax=51 / qpstep=4 / cplxblur=20.0 / qblur=0.5 / ip_ratio=1.40 / aq=1:1.00
Language : English
Default : No
Forced : No

Audio
ID : 2
Format : AC-3
Format/Info : Audio Coding 3
Mode extension : CM (complete main)
Format settings, Endianness : Big
Codec ID : A_AC3
Duration : 1 h 51 min
Bit rate mode : Constant
Bit rate : 640 kb/s
Channel(s) : 6 channels
Channel positions : Front: L C R, Side: L R, LFE
Sampling rate : 48.0 kHz
Frame rate : 31.250 FPS (1536 spf)
Compression mode : Lossy
Stream size : 510 MiB (11%)
Default : Yes
Forced : No




Click Image To View Full Size


Click To View Screenshot
Click To View Screenshot
Click To View Screenshot

Related Torrents

torrent name size uploader age seed leech
1022.7 MB YTSAGx 9
months
156 132
700.2 MB FXG 10
years
4 1
1.4 GB Survival 10
years
1 0
700 MB schroefzee 10
years
0 0
725.3 MB thezanny 10
years
0 0


Download torrent
4.4 GB
seeders:1
leechers:0
Bandslam 2009 720p Bluray x264-FSiHD[PRiME]


Trackers

tracker name
udp://tracker.ilibr.org:6969/announce
udp://tracker.coppersurfer.tk:6969
udp://tracker.ilibr.org:80/announce
udp://tracker.coppersurfer.tk:6969/announce
udp://tracker.leechers-paradise.org:6969/announce
udp://tracker.opentrackr.org:1337/announce
udp://tracker.zer0day.to:1337/announce
udp://ipv4.tracker.harry.lu:80/announce
udp://p4p.arenabg.ch:1337/announce
udp://p4p.arenabg.com:1337/announce
udp://9.rarbg.com:2710/announce
udp://9.rarbg.to:2710/announce
udp://9.rarbg.me:2710/announce
udp://explodie.org:6969/announce
udp://eddie4.nl:6969/announce
µTorrent compatible trackers list

Download torrent
4.4 GB
seeders:1
leechers:0
Bandslam 2009 720p Bluray x264-FSiHD[PRiME]


Torrent hash: 749DC1C7CC17B0A5CF1DE681383B72D8385DF119