Batwoman.S03E12.Siamo.tutti.matti.qui.1080p.BDMux.ITA.ENG.AC3.FLAC.x264-BlackBit.mkv

seeders: 5
leechers: 0
updated:
Added by eXpOrTeRICV in TV > HD

Download Fast Safe Anonymous
movies, software, shows...
  • Downloads: 12
  • Language: English

Files

  • Batwoman.S03E12.Siamo.tutti.matti.qui.1080p.BDMux.ITA.ENG.AC3.FLAC.x264-BlackBit.mkv (3.0 GB)

Description



DATI - TRAMA

Titolo originale Batwoman
Paese Stati Uniti d'America
Anno 2019-2022
Formato serie TV
Genere supereroi, drammatico, giallo, poliziesco
Stagioni 3
Episodi 51
Durata 42 minuti

Tre anni dopo la scomparsa del filantropo miliardario Bruce Wayne e del suo alter ego Batman[3], sua cugina Kate Kane si propone di affrontare il suo lato oscuro, affinché possa proteggere le strade di Gotham City come Batwoman e diventare un simbolo di speranza.

IMMAGINI





REPORT

Batwoman S03\Batwoman.S03E01.Pazzo.come.un.cappellaio.1080p.BDMux.ITA.ENG.x264-BlackBit.mkv
Format                      : Matroska
Format version              : Version 4
File size                   : 3.82 GiB
Duration                    : 42 min 30 s
Overall bit rate mode       : Variable
Overall bit rate            : 12.9 Mb/s
Encoded date                : UTC 2022-09-18 00:45:53
Writing application         : mkvmerge v70.0.0 ('Caught A Lite Sneeze') 64-bit
Writing library             : libebml v1.4.2 + libmatroska v1.6.4

Video
ID                          : 1
Format                      : AVC
Format/Info                 : Advanced Video Codec
Format profile              : [email protected]
Format settings             : CABAC / 4 Ref Frames
Format settings, CABAC      : Yes
Format settings, Reference  : 4 frames
Codec ID                    : V_MPEG4/ISO/AVC
Duration                    : 42 min 30 s
Bit rate                    : 9 250 kb/s
Width                       : 1 920 pixels
Height                      : 958 pixels
Display aspect ratio        : 2.004
Frame rate mode             : Constant
Frame rate                  : 23.976 (24000/1001) FPS
Color space                 : YUV
Chroma subsampling          : 4:2:0
Bit depth                   : 8 bits
Scan type                   : Progressive
Bits/(Pixel*Frame)          : 0.210
Stream size                 : 2.75 GiB (72%)
Writing library             : x264 core 164 r3094 bfc87b7
Encoding settings           : cabac=1 / ref=4 / deblock=1:-3:-3 / analyse=0x3:0x133 / me=umh / subme=10 / psy=1 / psy_rd=1.20:0.00 / mixed_ref=1 / me_range=24 / chroma_me=1 / trellis=2 / 8x8dct=1 / cqm=0 / deadzone=21,11 / fast_pskip=0 / chroma_qp_offset=-2 / threads=24 / lookahead_threads=4 / sliced_threads=0 / nr=0 / decimate=0 / interlaced=0 / bluray_compat=0 / constrained_intra=0 / bframes=8 / b_pyramid=2 / b_adapt=2 / b_bias=0 / direct=3 / weightb=1 / open_gop=0 / weightp=2 / keyint=250 / keyint_min=23 / scenecut=40 / intra_refresh=0 / rc_lookahead=60 / rc=crf / mbtree=1 / crf=16.0 / qcomp=0.60 / qpmin=0 / qpmax=69 / qpstep=4 / ip_ratio=1.40 / aq=3:0.90
Language                    : English
Default                     : Yes
Forced                      : Yes
Color range                 : Limited
Matrix coefficients         : BT.709

Audio #1
ID                          : 2
Format                      : AC-3
Format/Info                 : Audio Coding 3
Commercial name             : Dolby Digital
Codec ID                    : A_AC3
Duration                    : 42 min 30 s
Bit rate mode               : Constant
Bit rate                    : 192 kb/s
Channel(s)                  : 2 channels
Channel layout              : L R
Sampling rate               : 48.0 kHz
Frame rate                  : 31.250 FPS (1536 SPF)
Compression mode            : Lossy
Stream size                 : 58.4 MiB (1%)
Language                    : Italian
Service kind                : Complete Main
Default                     : Yes
Forced                      : Yes

Audio #2
ID                          : 3
Format                      : FLAC
Format/Info                 : Free Lossless Audio Codec
Codec ID                    : A_FLAC
Duration                    : 42 min 30 s
Bit rate mode               : Variable
Bit rate                    : 1 276 kb/s
Channel(s)                  : 6 channels
Channel layout              : L R C LFE Ls Rs
Sampling rate               : 48.0 kHz
Frame rate                  : 11.719 FPS (4096 SPF)
Bit depth                   : 16 bits
Compression mode            : Lossless
Stream size                 : 388 MiB (10%)
Writing library             : libFLAC 1.2.1 (UTC 2007-09-17)
Language                    : English
Default                     : No
Forced                      : No

Audio #3
ID                          : 4
Format                      : DTS XLL
Format/Info                 : Digital Theater Systems
Commercial name             : DTS-HD Master Audio
Codec ID                    : A_DTS
Duration                    : 42 min 30 s
Bit rate mode               : Variable
Bit rate                    : 2 161 kb/s
Channel(s)                  : 6 channels
Channel layout              : C L R Ls Rs LFE
Sampling rate               : 48.0 kHz
Frame rate                  : 93.750 FPS (512 SPF)
Bit depth                   : 16 bits
Compression mode            : Lossless
Stream size                 : 657 MiB (17%)
Language                    : English
Default                     : No
Forced                      : No

Text #1
ID                          : 5
Format                      : UTF-8
Codec ID                    : S_TEXT/UTF8
Codec ID/Info               : UTF-8 Plain Text
Duration                    : 38 min 53 s
Bit rate                    : 1 b/s
Frame rate                  : 0.006 FPS
Count of elements           : 13
Stream size                 : 504 Bytes (0%)
Title                       : Forced
Language                    : Italian
Default                     : Yes
Forced                      : Yes

Text #2
ID                          : 6
Format                      : UTF-8
Codec ID                    : S_TEXT/UTF8
Codec ID/Info               : UTF-8 Plain Text
Duration                    : 41 min 53 s
Bit rate                    : 86 b/s
Frame rate                  : 0.302 FPS
Count of elements           : 758
Stream size                 : 26.5 KiB (0%)
Language                    : Italian
Default                     : No
Forced                      : No

Text #3
ID                          : 7
Format                      : UTF-8
Codec ID                    : S_TEXT/UTF8
Codec ID/Info               : UTF-8 Plain Text
Duration                    : 41 min 53 s
Bit rate                    : 74 b/s
Frame rate                  : 0.261 FPS
Count of elements           : 657
Stream size                 : 23.0 KiB (0%)
Title                       : English
Language                    : English
Default                     : No
Forced                      : No

Text #4
ID                          : 8
Format                      : UTF-8
Codec ID                    : S_TEXT/UTF8
Codec ID/Info               : UTF-8 Plain Text
Duration                    : 42 min 2 s
Bit rate                    : 79 b/s
Frame rate                  : 0.285 FPS
Count of elements           : 720
Stream size                 : 24.6 KiB (0%)
Title                       : English SDH
Language                    : English
Default                     : No
Forced                      : No

Menu
00:00:00.000                : en:Chapter 01
00:00:38.830                : en:Chapter 02
00:02:20.682                : en:Chapter 03
00:10:01.518                : en:Chapter 04
00:18:00.913                : en:Chapter 05
00:25:25.607                : en:Chapter 06
00:31:05.447                : en:Chapter 07
00:34:38.326                : en:Chapter 08
00:42:01.144                : en:Chapter 09
00:42:29.172                : en:Chapter 10

GOOD DOWNLOAD





Download torrent
3 GB
seeders:5
leechers:0
Batwoman.S03E12.Siamo.tutti.matti.qui.1080p.BDMux.ITA.ENG.AC3.FLAC.x264-BlackBit.mkv


Trackers

tracker name
udp://tracker.opentrackr.org:1337/announce
udp://tracker.torrent.eu.org:451/announce
udp://open.stealth.si:80/announce
http://tracker.bt4g.com:2095/announce
udp://tracker.openbittorrent.com:80/announce
udp://tracker.tiny-vps.com:6969/announce
udp://p4p.arenabg.com:1337/announce
udp://explodie.org:6969/announce
udp://exodus.desync.com:6969/announce
udp://9.rarbg.me:2720/announce
udp://9.rarbg.to:2720/announce
µTorrent compatible trackers list

Download torrent
3 GB
seeders:5
leechers:0
Batwoman.S03E12.Siamo.tutti.matti.qui.1080p.BDMux.ITA.ENG.AC3.FLAC.x264-BlackBit.mkv


Torrent hash: 873B5D2C34F7304017C3F48945E12CEAC850BB41