Batwoman.S03E12.Siamo.tutti.matti.qui.1080p.BDMux.Untouched.ITA.ENG.AC3.DTS-HD.x264-BlackBit.mkv

seeders: 2
leechers: 0
updated:
Added by eXpOrTeRICV in TV > HD

Download Fast Safe Anonymous
movies, software, shows...
  • Downloads: 9
  • Language: English

Files

  • Batwoman.S03E12.Siamo.tutti.matti.qui.1080p.BDMux.Untouched.ITA.ENG.AC3.DTS-HD.x264-BlackBit.mkv (9.9 GB)

Description



DATI - TRAMA

Titolo originale Batwoman
Paese Stati Uniti d'America
Anno 2019-2022
Formato serie TV
Genere supereroi, drammatico, giallo, poliziesco
Stagioni 3
Episodi 51
Durata 42 minuti

Tre anni dopo la scomparsa del filantropo miliardario Bruce Wayne e del suo alter ego Batman[3], sua cugina Kate Kane si propone di affrontare il suo lato oscuro, affinché possa proteggere le strade di Gotham City come Batwoman e diventare un simbolo di speranza.

IMMAGINI





REPORT


Batwoman.S03E01.Pazzo.come.un.cappellaio.1080p.BluRay.REMUX.ITA.ENG.x264-BlackBit.mkv
Format : Matroska
Format version : Version 4
File size : 10.5 GiB
Duration : 42 min 30 s
Overall bit rate mode : Variable
Overall bit rate : 35.5 Mb/s
Encoded date : UTC 2022-09-18 01:40:47
Writing application : mkvmerge v70.0.0 ('Caught A Lite Sneeze') 64-bit
Writing library : libebml v1.4.2 + libmatroska v1.6.4

Video
ID : 1
ID in the original source m : 4113 (0x1011)
Format : AVC
Format/Info : Advanced Video Codec
Format profile : [email protected]
Format settings : CABAC / 4 Ref Frames
Format settings, CABAC : Yes
Format settings, Reference : 4 frames
Codec ID : V_MPEG4/ISO/AVC
Duration : 42 min 30 s
Bit rate mode : Variable
Bit rate : 33.1 Mb/s
Maximum bit rate : 38.0 Mb/s
Width : 1 920 pixels
Height : 1 080 pixels
Display aspect ratio : 16:9
Frame rate mode : Constant
Frame rate : 23.976 (24000/1001) FPS
Color space : YUV
Chroma subsampling : 4:2:0
Bit depth : 8 bits
Scan type : Progressive
Bits/(Pixel*Frame) : 0.665
Stream size : 9.82 GiB (93%)
Language : English
Default : Yes
Forced : Yes
Original source medium : Blu-ray

Audio #1
ID : 2
Format : AC-3
Format/Info : Audio Coding 3
Commercial name : Dolby Digital
Codec ID : A_AC3
Duration : 42 min 30 s
Bit rate mode : Constant
Bit rate : 192 kb/s
Channel(s) : 2 channels
Channel layout : L R
Sampling rate : 48.0 kHz
Frame rate : 31.250 FPS (1536 SPF)
Compression mode : Lossy
Stream size : 58.4 MiB (1%)
Language : Italian
Service kind : Complete Main
Default : Yes
Forced : Yes

Audio #2
ID : 3
ID in the original source m : 4352 (0x1100)
Format : DTS XLL
Format/Info : Digital Theater Systems
Commercial name : DTS-HD Master Audio
Codec ID : A_DTS
Duration : 42 min 30 s
Bit rate mode : Variable
Bit rate : 2 161 kb/s
Channel(s) : 6 channels
Channel layout : C L R Ls Rs LFE
Sampling rate : 48.0 kHz
Frame rate : 93.750 FPS (512 SPF)
Bit depth : 16 bits
Compression mode : Lossless
Stream size : 657 MiB (6%)
Title : DTS-HD MA 5.1
Language : English
Default : No
Forced : No
Original source medium : Blu-ray

Text #1
ID : 4
Format : UTF-8
Codec ID : S_TEXT/UTF8
Codec ID/Info : UTF-8 Plain Text
Duration : 38 min 53 s
Bit rate : 1 b/s
Frame rate : 0.006 FPS
Count of elements : 13
Stream size : 504 Bytes (0%)
Title : Forced
Language : Italian
Default : Yes
Forced : Yes

Text #2
ID : 5
Format : UTF-8
Codec ID : S_TEXT/UTF8
Codec ID/Info : UTF-8 Plain Text
Duration : 41 min 53 s
Bit rate : 86 b/s
Frame rate : 0.302 FPS
Count of elements : 758
Stream size : 26.5 KiB (0%)
Language : Italian
Default : No
Forced : No

Text #3
ID : 6
Format : UTF-8
Codec ID : S_TEXT/UTF8
Codec ID/Info : UTF-8 Plain Text
Duration : 41 min 53 s
Bit rate : 74 b/s
Frame rate : 0.261 FPS
Count of elements : 657
Stream size : 23.0 KiB (0%)
Title : English
Language : English
Default : No
Forced : No

Text #4
ID : 7
Format : UTF-8
Codec ID : S_TEXT/UTF8
Codec ID/Info : UTF-8 Plain Text
Duration : 42 min 2 s
Bit rate : 79 b/s
Frame rate : 0.285 FPS
Count of elements : 720
Stream size : 24.6 KiB (0%)
Title : English SDH
Language : English
Default : No
Forced : No

Text #5
ID : 8
ID in the original source m : 4609 (0x1201)
Format : PGS
Muxing mode : zlib
Codec ID : S_HDMV/PGS
Codec ID/Info : Picture based subtitle format used on BDs/HD-DVDs
Duration : 42 min 2 s
Bit rate : 44.2 kb/s
Frame rate : 0.589 FPS
Count of elements : 1486
Stream size : 13.3 MiB (0%)
Title : English (SDH)
Language : English
Default : No
Forced : No
Original source medium : Blu-ray

Text #6
ID : 9
ID in the original source m : 4608 (0x1200)
Format : PGS
Muxing mode : zlib
Codec ID : S_HDMV/PGS
Codec ID/Info : Picture based subtitle format used on BDs/HD-DVDs
Duration : 41 min 52 s
Bit rate : 30.9 kb/s
Frame rate : 0.482 FPS
Count of elements : 1212
Stream size : 9.27 MiB (0%)
Title : Japanese
Language : Japanese
Default : No
Forced : No
Original source medium : Blu-ray

Menu
00:00:00.000 : en:Chapter 01
00:00:38.830 : en:Chapter 02
00:02:20.682 : en:Chapter 03
00:10:01.517 : en:Chapter 04
00:18:00.913 : en:Chapter 05
00:25:25.607 : en:Chapter 06
00:31:05.446 : en:Chapter 07
00:34:38.326 : en:Chapter 08
00:42:01.143 : en:Chapter 09

GOOD DOWNLOAD







Download torrent
9.9 GB
seeders:2
leechers:0
Batwoman.S03E12.Siamo.tutti.matti.qui.1080p.BDMux.Untouched.ITA.ENG.AC3.DTS-HD.x264-BlackBit.mkv


Trackers

tracker name
udp://tracker.opentrackr.org:1337/announce
udp://tracker.torrent.eu.org:451/announce
udp://open.stealth.si:80/announce
http://tracker.bt4g.com:2095/announce
udp://tracker.openbittorrent.com:80/announce
udp://tracker.tiny-vps.com:6969/announce
udp://p4p.arenabg.com:1337/announce
udp://explodie.org:6969/announce
udp://exodus.desync.com:6969/announce
udp://9.rarbg.me:2720/announce
udp://9.rarbg.to:2720/announce
µTorrent compatible trackers list

Download torrent
9.9 GB
seeders:2
leechers:0
Batwoman.S03E12.Siamo.tutti.matti.qui.1080p.BDMux.Untouched.ITA.ENG.AC3.DTS-HD.x264-BlackBit.mkv


Torrent hash: D53D500C0ECF20BFAE887D5BC583870E63A86B12