Beowulf (2007) Dual Audio Hindi 720p BluRay 950MB ESubs @ KatMaster

seeders: 4
leechers: 1
updated:

Download Fast Safe Anonymous
movies, software, shows...
Summary:

An epic tale concerning a 6th-century Scandinavian warrior named Beowulf and his mission to slay the manlike ogre Grendel, a descendant of Cain.

Files

Beowulf (2007) Dual Audio Hindi 720p BluRay ESubs
  • Beowulf (2007) Dual Audio Hindi 720p BluRay ESubs.mkv (940.2 MB)
  • SSR Movies - 300MB Dual Audio Movies.url (0.0 KB)

Description



Code:

[FORMAT]:…………………….[ Matroska
[ENCODER]:…………..[ KatMaster





Set in 507, Beowulf is a legendary Geatish warrior who travels to Denmark with his band of soldiers, including his best friend, Wiglaf. They meet King Hrothgar, who needs a hero to slay Grendel, a hideously malformed troll-like creature with appalling strength and cunning.


Movie Info:

Genres: Animation, Action, Adventure
Directed by: Robert Zemeckis
Writers: Neil Gaiman, Roger Avary
Stars Cast: Ray Winstone, Crispin Glover, Angelina Jolie
IMDb: http://www.imdb.com/title/tt0442933/
Language: Hindi + English

Video
ID : 1
Format : AVC
Format/Info : Advanced Video Codec
Format profile : [email protected]
Format settings, CABAC : Yes
Format settings, RefFrames : 4 frames
Codec ID : V_MPEG4/ISO/AVC
Duration : 1 h 54 min
Bit rate : 900 kb/s
Width : 1 276 pixels
Height : 544 pixels
Display aspect ratio : 2.35:1
Frame rate mode : Constant
Frame rate : 23.976 (24000/1001) FPS
Color space : YUV
Chroma subsampling : 4:2:0
Bit depth : 8 bits
Scan type : Progressive
Bits/(Pixel*Frame) : 0.054
Stream size : 735 MiB (78%)

Audio #1 (Hindi)
ID : 2
Format : AAC
Format/Info : Advanced Audio Codec
Format profile : LC
Codec ID : A_AAC
Duration : 1 h 46 min
Bit rate : 129 kb/s
Channel(s) : 2 channels
Channel positions : Front: L R
Sampling rate : 44.1 kHz
Frame rate : 43.066 FPS (1024 SPF)
Compression mode : Lossy
Delay relative to video : -23 ms
Stream size : 97.6 MiB (10%)

Audio #2 (English)
ID : 3
Format : AAC
Format/Info : Advanced Audio Codec
Format profile : LC
Codec ID : A_AAC
Duration : 1 h 54 min
Bit rate : 129 kb/s
Channel(s) : 2 channels
Channel positions : Front: L R
Sampling rate : 48.0 kHz
Frame rate : 46.875 FPS (1024 SPF)
Compression mode : Lossy
Delay relative to video : -21 ms
Stream size : 105 MiB (11%)


Screenshots:




Related Torrents

torrent name size uploader age seed leech
750.7 MB YIFY 6
years
30 3
1.6 GB YIFY 6
years
28 3
1.6 GB CharlieJade 3
years
19 2
825.1 MB ultraman2 3
years
2 0
2.5 GB sub7 2
years
1 1


Download torrent
940.2 MB
seeders:4
leechers:1
Beowulf (2007) Dual Audio Hindi 720p BluRay 950MB ESubs @ KatMaster


Trackers

tracker name
udp://tracker.coppersurfer.tk:6969/announce
udp://tracker.ilibr.org:6969/announce
udp://tracker.ilibr.org:80/announce
udp://tracker.opentrackr.org:1337/announce
udp://zer0day.to:1337/announce
udp://tracker.zer0day.to:1337/announce
udp://p4p.arenabg.com:1337/announce
udp://p4p.arenabg.ch:1337/announce
udp://tracker.leechers-paradise.org:6969/announce
udp://explodie.org:6969/announce
udp://9.rarbg.to:2710/announce
udp://eddie4.nl:6969/announce
udp://9.rarbg.to:2770/announce
µTorrent compatible trackers list

Download torrent
940.2 MB
seeders:4
leechers:1
Beowulf (2007) Dual Audio Hindi 720p BluRay 950MB ESubs @ KatMaster


Torrent hash: 24A012CEEE2FB5502705ACD7315242CEBA7A408C