Better.Call.Saul.S06E13.1080p.WEB.H264-GGEZ

seeders: 2583
leechers: 764
updated:
Added by prudence25 in TV > HD

Download Fast Safe Anonymous
movies, software, shows...

Files

Better.Call.Saul.S06E13.1080p.WEB.H264-GGEZ[rarbg]
  • RARBG.txt (0.0 KB)
  • RARBG_DO_NOT_MIRROR.exe (0.1 KB)
  • better.call.saul.s06e13.1080p.web.h264-ggez.mkv (4.3 GB)
  • better.call.saul.s06e13.1080p.web.h264-ggez.nfo (0.4 KB)

Description



Video
ID : 1
Format : AVC
Format/Info : Advanced Video Codec
Format profile : [email protected]
Format settings : CABAC / 4 Ref Frames
Format settings, CABAC : Yes
Format settings, Reference frames : 4 frames
Codec ID : V_MPEG4/ISO/AVC
Duration : 1 h 11 min
Bit rate mode : Constant
Bit rate : 7 779 kb/s
Nominal bit rate : 10 000 kb/s
Width : 1 920 pixels
Height : 1 080 pixels
Display aspect ratio : 16:9
Frame rate mode : Constant
Frame rate : 24.000 FPS
Color space : YUV
Chroma subsampling : 4:2:0
Bit depth : 8 bits
Scan type : Progressive
Bits/(Pixel*Frame) : 0.156
Stream size : 3.90 GiB (91%)
Default : Yes
Forced : No
Color range : Limited
Color primaries : BT.709
Transfer characteristics : BT.709
Matrix coefficients : BT.709

Audio
ID : 2
Format : E-AC-3
Format/Info : Enhanced AC-3
Commercial name : Dolby Digital Plus
Codec ID : A_EAC3
Duration : 1 h 11 min
Bit rate mode : Constant
Bit rate : 640 kb/s
Channel(s) : 6 channels
Channel layout : L R C LFE Ls Rs
Sampling rate : 48.0 kHz
Frame rate : 31.250 FPS (1536 SPF)
Compression mode : Lossy
Stream size : 329 MiB (7%)
Language : English
Service kind : Complete Main
Default : Yes
Forced : No

Text
ID : 3
Format : UTF-8
Codec ID : S_TEXT/UTF8
Codec ID/Info : UTF-8 Plain Text
Title : English [SDH]
Language : English
Default : No
Forced : No



Download torrent
4.3 GB
seeders:2583
leechers:764
Better.Call.Saul.S06E13.1080p.WEB.H264-GGEZ


Trackers

tracker name
http://tracker.trackerfix.com:80/announce
udp://9.rarbg.me:2750/announce
udp://9.rarbg.to:2760/announce
udp://tracker.tallpenguin.org:15760/announce
udp://tracker.thinelephant.org:12770/announce
µTorrent compatible trackers list

Download torrent
4.3 GB
seeders:2583
leechers:764
Better.Call.Saul.S06E13.1080p.WEB.H264-GGEZ


Torrent hash: AAF6ADD1ABABD6686222B5A87C36C5E32FFFCFF1