Cast Away (2000) 1080p BluRay x264 Dual Audio Hindi English AC3 5.1 - MeGUiL

seeders: 35
leechers: 9
updated:

Download Fast Safe Anonymous
movies, software, shows...
Summary:

Chuck, a top international manager for FedEx, and Kelly, a Ph.D. student, are in love and heading towards marriage. Then Chuck's plane to Malaysia ditches at sea during a terrible storm. He's the only survivor, and he washes up on a tiny island with nothing but some flotsam and jetsam from the aircraft's cargo. Can he survive in this tropical wasteland? Will he ever return to woman he loves?

Files

Cast Away (2000) 1080p BluRay x264 Dual Audio Hindi English AC3 5.1 - MeGUiL
  • Cast Away (2000) 1080p BluRay x264 Dual Audio Hindi English AC3 5.1 - MeGUiL.mkv (3.1 GB)
  • Sample.mkv (19.0 MB)

Description



Release Title
Cast Away (2000) 1080p BluRay x264 Dual Audio Hindi English AC3 5.1 - MeGUiL

IMDB Link
https://www.imdb.com/title/tt0162222/

IMDb Rating
7.8/10 (520,690 user)

Screens:
Click to enlarge




















Code:

Media Info
General
Format : Matroska
Format version : Version 4
File size : 3.13 GiB
Duration : 2 h 24 min
Overall bit rate : 3 102 kb/s
Movie name : Cast Away (2000) 1080p BluRay x264 Dual Audio Hindi English AC3 5.1 - MeGUiL
Encoded date : UTC 2021-01-03 18:32:26
Writing application : mkvmerge v7.7.0 ('Six Voices') 64bit built on Feb 28 2015 23:39:33
Writing library : libebml v1.3.1 + libmatroska v1.4.2

Video
ID : 1
Format : AVC
Format/Info : Advanced Video Codec
Format profile : [email protected]
Format settings : CABAC / 4 Ref Frames
Format settings, CABAC : Yes
Format settings, RefFrames : 4 frames
Codec ID : V_MPEG4/ISO/AVC
Duration : 2 h 23 min
Bit rate : 2 500 kb/s
Width : 1 920 pixels
Height : 1 036 pixels
Display aspect ratio : 1.85:1
Frame rate mode : Constant
Frame rate : 23.976 (24000/1001) FPS
Color space : YUV
Chroma subsampling : 4:2:0
Bit depth : 8 bits
Scan type : Progressive
Bits/(Pixel*Frame) : 0.052
Stream size : 2.48 GiB (79%)
Title : Cast Away (2000) 1080p BluRay x264 Dual Audio Hindi English AC3 5.1 - MeGUiL
Writing library : x264 core 157 r2935 545de2f
Encoding settings : cabac=1 / ref=3 / deblock=1:0:0 / analyse=0x3:0x113 / me=hex / subme=7 / psy=1 / psy_rd=1.00:0.00 / mixed_ref=1 / me_range=16 / chroma_me=1 / trellis=1 / 8x8dct=1 / cqm=0 / deadzone=21,11 / fast_pskip=1 / chroma_qp_offset=-2 / threads=18 / lookahead_threads=3 / sliced_threads=0 / nr=0 / decimate=1 / interlaced=0 / bluray_compat=0 / constrained_intra=0 / bframes=3 / b_pyramid=2 / b_adapt=1 / b_bias=0 / direct=1 / weightb=1 / open_gop=0 / weightp=2 / keyint=240 / keyint_min=24 / scenecut=40 / intra_refresh=0 / rc_lookahead=40 / rc=abr / mbtree=1 / bitrate=2500 / ratetol=1.0 / qcomp=0.60 / qpmin=0 / qpmax=69 / qpstep=4 / vbv_maxrate=62500 / vbv_bufsize=78125 / nal_hrd=none / filler=0 / ip_ratio=1.40 / aq=1:1.00
Default : Yes
Forced : No
Color range : Limited
Color primaries : BT.709
Transfer characteristics : BT.709
Matrix coefficients : BT.709

Audio #1
ID : 2
Format : AC-3
Format/Info : Audio Coding 3
Commercial name : Dolby Digital
Codec ID : A_AC3
Duration : 2 h 24 min
Bit rate mode : Constant
Bit rate : 320 kb/s
Channel(s) : 6 channels
Channel layout : L R C LFE Ls Rs
Sampling rate : 48.0 kHz
Frame rate : 31.250 FPS (1536 SPF)
Bit depth : 16 bits
Compression mode : Lossy
Delay relative to video : 2 ms
Stream size : 331 MiB (10%)
Title : AC3 320 kbps 5.1 - MeGUiL
Language : Hindi
Service kind : Complete Main
Default : Yes
Forced : No

Audio #2
ID : 3
Format : AC-3
Format/Info : Audio Coding 3
Commercial name : Dolby Digital
Codec ID : A_AC3
Duration : 2 h 23 min
Bit rate mode : Constant
Bit rate : 320 kb/s
Channel(s) : 6 channels
Channel layout : L R C LFE Ls Rs
Sampling rate : 48.0 kHz
Frame rate : 31.250 FPS (1536 SPF)
Bit depth : 16 bits
Compression mode : Lossy
Delay relative to video : -5 ms
Stream size : 329 MiB (10%)
Title : AC3 320 kbps 5.1 - MeGUiL
Language : English
Service kind : Complete Main
Default : No
Forced : No

Menu
00:00:00.000 : :Main Titles
00:01:50.819 : :The FedEx Way
00:08:37.851 : :A Message for Kelly
00:12:23.326 : :Home for Christmas
00:17:41.269 : :Presents & Promises
00:20:43.534 : :Turbulence
00:22:40.276 : :Mayday!
00:25:45.461 : :The Crash
00:31:11.620 : :Washed Ashore
00:35:55.320 : :Totally Alone
00:39:35.623 : :The Coconut Problem
00:42:23.207 : :The Island
00:46:34.292 : :Albert Miller
00:51:49.315 : :A Light in the Distance
00:56:29.052 : :The Storm
01:01:34.357 : :Gifts from FedEx
01:04:33.119 : :To Make Fire
01:13:11.846 : :Wilson
01:17:37.820 : :His Own Dentist
01:19:09.870 : :Four Years Later
01:20:42.046 : :The Raft
01:26:37.901 : :30 Feet of Rope
01:34:00.176 : :Escape to the Sea
01:40:37.365 : :Where's Wilson?
01:45:21.398 : :Rescued
01:47:38.369 : :Welcome Home
01:53:30.470 : :Back to Life
01:55:59.953 : :The Night Visitor
02:04:59.575 : :The Love of My Life
02:08:27.617 : :Adding It Up
02:12:21.725 : :At the Crossroads
02:16:54.540 : :End Titles

Related Torrents

torrent name size uploader age seed leech
1.1 GB CharlieJade 6
years
213 18
3.5 GB LoZio 2
months
93 14
950.6 MB CharlieJade 6
years
92 11
7.8 GB QxR 2
years
72 9
1.1 GB MoviesFD7 1
year
15 4


Download torrent
3.1 GB
seeders:35
leechers:9
Cast Away (2000) 1080p BluRay x264 Dual Audio Hindi English AC3 5.1 - MeGUiL


Trackers

tracker name
udp://tracker.opentrackr.org:1337/announce
http://tracker.foreverpirates.co:80/announce
udp://46.148.18.250:2710
udp://opentor.org:2710
udp://exodus.desync.com:6969/announce
udp://open.stealth.si:80/announce
udp://tracker.cyberia.is:6969/announce
http://tracker.dler.org:6969/announce
udp://tracker.leechers-paradise.org:6969/announce
udp://tracker.moeking.me:6969/announce
udp://tracker.tiny-vps.com:6969/announce
udp://tracker.torrent.eu.org:451/announce
udp://inferno.demonoid.is:3391/announce
udp://retracker.lanta-net.ru:2710/announce
udp://p4p.arenabg.com:1337/announce
µTorrent compatible trackers list

Download torrent
3.1 GB
seeders:35
leechers:9
Cast Away (2000) 1080p BluRay x264 Dual Audio Hindi English AC3 5.1 - MeGUiL


Torrent hash: 226F4756419F6F8A94AF37DD8848B8E8529675CC