Cast Away (2000) [BDrip 1080p – H265 - Ita Eng Ac3 - Sub Ita Eng] webseed

seeders: 1
leechers: 2
updated:
Added by sciencefun in Movies > HD

Download Fast Safe Anonymous
movies, software, shows...
Summary:

Chuck, a top international manager for FedEx, and Kelly, a Ph.D. student, are in love and heading towards marriage. Then Chuck's plane to Malaysia ditches at sea during a terrible storm. He's the only survivor, and he washes up on a tiny island with nothing but some flotsam and jetsam from the aircraft's cargo. Can he survive in this tropical wasteland? Will he ever return to woman he loves?

Files

  • Cast Away (2000) 1080p ITA ENG Hevc [Sciencefun Encoding] (audio ok).mkv (4.8 GB)

Description

[align=center]




Chuck Noland, ingegnere della Federal Express, la cui vita personale e professionale è scandita dall'orologio, dai ritmi frenetici e dai continui spostamenti, spesso senza preavviso, che lo allontanano dalla sua fidanzata Kelly. La maniacale organizzazione dell'esistenza di Chuck s'interrompe di colpo quando si ritrova su un'isola deserta, tagliato fuori dal mondo, nelle condizioni ambientali più desolate e desolanti che si possano immaginare. Privato di ogni contatto umano e delle comodità della vita quotidiana, Chuck deve procurarsi le cose più elementari per sopravvivere: acqua, cibo e riparo.

DATA USCITA: 12 gennaio 2001
• GENERE: Avventura
• ANNO: 2000
• REGIA: Robert Zemeckis
• ATTORI: Tom Hanks, Helen Hunt, Aaron Rapke, Michael Forest, Nan Martin..
• SCENEGGIATURA: William Broyles Jr.
• FOTOGRAFIA: Don Burgess
• MONTAGGIO: Arthur Schmidt
• MUSICHE: Alan Silvestri
• PRODUZIONE: DreamWorks, 20th Century Fox
• DISTRIBUZIONE: UIP,
• PAESE: USA
• DURATA: 143 Min



[spoiler]
General
Unique ID : 202247207315050025260527601106848311403 (0x98276530A7D2426FA8F67C3CB5FBE86B)
Complete name : F:\Ibm Sequoia\temp\Cast Away (2000) 1080p ITA ENG Hevc [Sciencefun Encoding] (audio ok).mkv
Format : Matroska
Format version : Version 4 / Version 2
File size : 4.81 GiB
Duration : 2h 23mn
Overall bit rate : 4 788 Kbps
Encoded date : UTC 2016-04-05 21:39:48 / UTC
Writing application : mkvmerge v8.9.0 ('Father Daughter') 64bit
Writing library : libebml v1.3.3 + libmatroska v1.4.4 / Lavf55.12.0

Video
ID : 1
Format : HEVC
Format/Info : High Efficiency Video Coding
Format profile : [email protected]@Main
Codec ID : V_MPEGH/ISO/HEVC
Duration : 2h 23mn
Bit rate : 3 413 Kbps
Width : 1 918 pixels
Height : 1 080 pixels
Display aspect ratio : 16:9
Frame rate mode : Constant
Frame rate : 23.976 (24000/1001) fps
Color space : YUV
Chroma subsampling : 4:2:0
Bit depth : 8 bits
Bits/(Pixel*Frame) : 0.069
Stream size : 3.43 GiB (71%)
Writing library : x265 1.5:[Windows][GCC 4.9.0][64 bit]
Encoding settings : wpp / ctu=64 / tu-intra-depth=1 / tu-inter-depth=1 / me=1 / subme=2 / merange=57 / no-rect / no-amp / max-merge=2 / temporal-mvp / no-early-skip / no-fast-cbf / rdpenalty=0 / no-tskip / no-tskip-fast / strong-intra-smoothing / no-lossless / no-cu-lossless / no-constrained-intra / no-fast-intra / open-gop / interlace=0 / keyint=240 / min-keyint=24 / scenecut=40 / rc-lookahead=20 / bframes=4 / bframe-bias=0 / b-adapt=2 / ref=3 / weightp / no-weightb / aq-mode=1 / aq-strength=1.00 / cbqpoffs=0 / crqpoffs=0 / rd=3 / psy-rd=0.30 / psy-rdoq=0.00 / signhide / lft / sao / no-sao-non-deblock / b-pyramid / cutree / rc=crf / crf=20.0 / qcomp=0.60 / qpmin=0 / qpmax=51 / qpstep=4 / ipratio=1.40 / pbratio=1.30
Default : Yes
Forced : No
Color range : Limited
Color primaries : BT.709
Transfer characteristics : BT.709
Matrix coefficients : BT.709
Statistics Tags Issue : mkvmerge v8.9.0 ('Father Daughter') 64bit 2016-04-05 21:39:48 / mkvmerge v8.9.0 ('Father Daughter') 64bit 2016-04-05 21:39:48 / UTC
FromStats_BitRate : 3505705
FromStats_Duration : 02:23:47.619000000
FromStats_FrameCount : 206856
FromStats_StreamSize : 3780736613

Audio #1
ID : 2
Format : AC-3
Format/Info : Audio Coding 3
Mode extension : CM (complete main)
Format settings, Endianness : Big
Codec ID : A_AC3
Duration : 2h 23mn
Bit rate mode : Constant
Bit rate : 640 Kbps
Channel(s) : 6 channels
Channel positions : Front: L C R, Side: L R, LFE
Sampling rate : 48.0 KHz
Frame rate : 31.250 fps (1536 spf)
Compression mode : Lossy
Delay relative to video : -83ms
Stream size : 658 MiB (13%)
Language : Italian
Default : Yes
Forced : No
Statistics Tags Issue : mkvmerge v8.9.0 ('Father Daughter') 64bit 2016-04-05 21:39:48 / mkvmerge v8.9.0 ('Father Daughter') 64bit 2016-04-05 21:39:48 / UTC
FromStats_BitRate : 640000
FromStats_Duration : 02:23:47.648000000
FromStats_FrameCount : 269614
FromStats_StreamSize : 690211840

Audio #2
ID : 3
Format : AC-3
Format/Info : Audio Coding 3
Mode extension : CM (complete main)
Format settings, Endianness : Big
Codec ID : A_AC3
Duration : 2h 23mn
Bit rate mode : Constant
Bit rate : 640 Kbps
Channel(s) : 6 channels
Channel positions : Front: L C R, Side: L R, LFE
Sampling rate : 48.0 KHz
Frame rate : 31.250 fps (1536 spf)
Compression mode : Lossy
Delay relative to video : -83ms
Stream size : 658 MiB (13%)
Language : English
Default : No
Forced : No
Statistics Tags Issue : mkvmerge v8.9.0 ('Father Daughter') 64bit 2016-04-05 21:39:48 / mkvmerge v8.9.0 ('Father Daughter') 64bit 2016-04-05 21:39:48 / UTC
FromStats_BitRate : 640000
FromStats_Duration : 02:23:47.648000000
FromStats_FrameCount : 269614
FromStats_StreamSize : 690211840

Text #1
ID : 4
Format : ASS
Codec ID : S_TEXT/ASS
Codec ID/Info : Advanced Sub Station Alpha
Compression mode : Lossless
Language : Italian
Default : No
Forced : No
Statistics Tags Issue : mkvmerge v8.9.0 ('Father Daughter') 64bit 2016-04-05 21:39:48 / mkvmerge v8.9.0 ('Father Daughter') 64bit 2016-04-05 21:39:48 / UTC
FromStats_BitRate : 33
FromStats_Duration : 02:14:07.873000000
FromStats_FrameCount : 655
FromStats_StreamSize : 34176

Text #2
ID : 5
Format : ASS
Codec ID : S_TEXT/ASS
Codec ID/Info : Advanced Sub Station Alpha
Compression mode : Lossless
Language : English
Default : No
Forced : No
Statistics Tags Issue : mkvmerge v8.9.0 ('Father Daughter') 64bit 2016-04-05 21:39:48 / mkvmerge v8.9.0 ('Father Daughter') 64bit 2016-04-05 21:39:48 / UTC
FromStats_BitRate : 40
FromStats_Duration : 02:12:54.753000000
FromStats_FrameCount : 740
FromStats_StreamSize : 40165
[/spoiler]

[spoiler]



[/spoiler]



Seed
Webseed

Illimitato

:giggle: velocità media 16Mbit/s [fino a 64Mbit/s]
VPS: 1Gbps Upload <12h
Seed in DHT

Mi Raccomando

rimanete in Seed

!!!



un :rr: è sempre ben accetto [/align]

Related Torrents

torrent name size uploader age seed leech
1.1 GB CharlieJade 6
years
213 18
950.6 MB CharlieJade 6
years
92 11
7.8 GB QxR 1
year
72 9
3.5 GB LoZio 1
month
53 4
3.1 GB meguil 1
year
35 9


Download torrent
4.8 GB
seeders:1
leechers:2
Cast Away (2000) [BDrip 1080p – H265 - Ita Eng Ac3 - Sub Ita Eng] webseed


Trackers

tracker name
http://tracker.tntvillage.scambioetico.org:2710/announce
udp://tracker.coppersurfer.tk:6969/announce
udp://tracker.openbittorrent.com:80/announce
udp://tracker.publicbt.com:80
udp://tracker.istole.it:80
udp://open.demonii.com:1337/announce
µTorrent compatible trackers list

Download torrent
4.8 GB
seeders:1
leechers:2
Cast Away (2000) [BDrip 1080p – H265 - Ita Eng Ac3 - Sub Ita Eng] webseed


Torrent hash: 260167363F60EBF27BFEB4C97041EC11AD17905B