Confess Fletch (2022) 720p x264 Phun Psyz

seeders: 17
leechers: 5
updated:
Added by psyzbackup in Movies > HD

Download Fast Safe Anonymous
movies, software, shows...
Summary:

The roguishly charming and endlessly troublesome Fletch becomes the prime suspect in a murder case while searching for a stolen art collection. The only way to prove his innocence? Find out which of the long list of suspects is the culprit - from the eccentric art dealer and a missing playboy to a crazy neighbor and Fletch’s Italian girlfriend.

Files

  • Confess Fletch (2022) 720p x264 Phun Psyz.mp4 (696.8 MB)

Description

www.imdb.com/title/tt12718300/

After becoming the prime suspect in multiple murders, Fletch strives to prove his innocence while simultaneously searching for his fiancé's stolen art collection.

Source: 4K HDR web



Format : MPEG-4
Format profile : Base Media / Version 2
Codec ID : mp42 (mp42/iso2/avc1/mp41)
File size : 697 MiB
Duration : 1 h 38 min
Overall bit rate mode : Variable
Overall bit rate : 989 kb/s

Video
ID : 1
Format : AVC
Format/Info : Advanced Video Codec
Format profile : [email protected]
Format settings : CABAC / 1 Ref Frames
Format settings, CABAC : Yes
Format settings, Reference : 1 frame
Codec ID : avc1
Codec ID/Info : Advanced Video Coding
Duration : 1 h 38 min
Bit rate : 871 kb/s
Width : 1 280 pixels
Height : 692 pixels
Display aspect ratio : 1.85:1
Frame rate mode : Variable
Frame rate : 23.976 (24000/1001) FPS
Color space : YUV
Chroma subsampling : 4:2:0
Bit depth : 8 bits
Scan type : Progressive
Bits/(Pixel*Frame) : 0.041
Stream size : 614 MiB (88%)
Writing library : x264 core 163 r3059 b684ebe0
Color primaries : BT.709
Transfer characteristics : BT.709
Matrix coefficients : BT.709

Audio
ID : 2
Format : AAC LC
Format/Info : Advanced Audio Codec Low Complexity
Codec ID : mp4a-40-2
Duration : 1 h 38 min
Bit rate mode : Constant
Bit rate : 113 kb/s
Channel(s) : 2 channels
Channel layout : L R
Sampling rate : 48.0 kHz
Frame rate : 46.875 FPS (1024 SPF)
Compression mode : Lossy
Stream size : 79.3 MiB (11%)
Title : Stereo
Language : English

Text
Language : English
Default : Yes
Forced : No
Language : English
Default : No
Forced : No

Related Torrents

torrent name size uploader age seed leech
7.2 GB prudence25 4
months
1515 557
797 MB TGxGoodies 4
months
626 196
1.4 GB TGxGoodies 4
months
238 70
7.2 GB TGxGoodies 4
months
85 35
1.5 GB BedBug 4
months
61 21


Download torrent
696.8 MB
seeders:17
leechers:5
Confess Fletch (2022) 720p x264 Phun Psyz


Trackers

tracker name
udp://ipv4.tracker.harry.lu:80/announce
udp://tracker.moeking.me:6969/announce
udp://tracker.opentrackr.org:1337/announce
udp://tracker.openbittorrent.com:6969
udp://explodie.org:6969/announce
udp://open.stealth.si:80/announce
http://ipv4announce.sktorrent.eu:6969/announce
udp://vibe.sleepyinternetfun.xyz:1738/announce
udp://tracker.torrent.eu.org:451/announce
http://tracker.bt4g.com:2095/announce
µTorrent compatible trackers list

Download torrent
696.8 MB
seeders:17
leechers:5
Confess Fletch (2022) 720p x264 Phun Psyz


Torrent hash: 7D101ADF5098B541D7719811DDF73405A29BDA96