Dexter.S05E01.720p.HDTV.x264-ORENJI

seeders: 3
leechers: 0
updated:
Added by bytesize in TV > HD

Download Fast Safe Anonymous
movies, software, shows...
  • View all Dexter episodes
  • Episode title: My Bad
  • Episode: S5E1
  • Air date: September 26,2010, 06:00AM
  • Rating: 80
  • Downloads: 588
  • Language: English
Summary:

Dexter must make a choice; Quinn stirs up trouble for Dexter but supports Deb.

Files

  • Dexter.S05E01.720p.HDTV.x264-ORENJI.mkv (1.5 GB)

Description

Dexter.S05E01.720p.HDTV.x264






Format : Matroska
File size : 1.46 GiB
Duration : 53mn 25s
Overall bit rate : 3 903 Kbps
Encoded date : UTC 2010-02-22 21:41:29
Writing application : no_variable_data
Writing library : no_variable_data
Video
ID : 2
Format : AVC
Format/Info : Advanced Video Codec
Format profile : [email protected]
Format settings, CABAC : Yes
Format settings, ReFrames : 5 frames
Muxing mode : Container [email protected]
Codec ID : V_MPEG4/ISO/AVC
Duration : 53mn 25s
Bit rate : 3 518 Kbps
Width : 1 280 pixels
Height : 720 pixels
Display aspect ratio : 16:9
Frame rate : 23.976 fps
Color space : YUV
Chroma subsampling : 4:2:0
Bit depth : 8 bits
Scan type : Progressive
Bits/(Pixel*Frame) : 0.159
Stream size : 1.28 GiB (88%)
Writing library : x264 core 85 r1442tw

Language : English

Audio
ID : 1
Format : AC-3
Format/Info : Audio Coding 3
Mode extension : CM (complete main)
Codec ID : A_AC3
Duration : 53mn 25s
Bit rate mode : Constant
Bit rate : 384 Kbps
Channel(s) : 6 channels
Channel positions : Front: L C R, Side: L R, LFE
Sampling rate : 48.0 KHz
Bit depth : 16 bits
Stream size : 147 MiB (10%)

Related Torrents

torrent name size uploader age seed leech
20.6 GB fratposa10 3
years
6 4
550.2 MB Razorflame 9
years
4 0
534.6 MB carambolas 9
years
1 0
550.2 MB DutchRelease 9
years
0 0


Download torrent
1.5 GB
seeders:3
leechers:0
Dexter.S05E01.720p.HDTV.x264-ORENJI


Trackers

tracker name
http://exodus.1337x.org/announce
udp://tracker.1337x.org:80/announce
µTorrent compatible trackers list

Download torrent
1.5 GB
seeders:3
leechers:0
Dexter.S05E01.720p.HDTV.x264-ORENJI


Torrent hash: 2B3D7E948359C83FC95FB0E0521B96599A28B26B