Dredd 2012 BR OPUS VFF51 VFQ51 ENG71 1080p x265 10Bits T0M (Judge Dredd 2)

seeders: 38
leechers: 10
updated:
Added by T0M4 in Movies > HEVC/x265

Download Fast Safe Anonymous
movies, software, shows...
Summary:

In the future, America is a dystopian wasteland. The latest scourge is Ma-Ma, a prostitute-turned-drug pusher with a dangerous new drug and aims to take over the city. The only possibility of stopping her is an elite group of urban police called Judges, who combine the duties of judge, jury and executioner to deliver a brutal brand of swift justice. But even the top-ranking Judge, Dredd, discovers that taking down Ma-Ma isn’t as easy as it seems in this explosive adaptation of the hugely popular comic series.

Files

  • Dredd 2012 BR OPUS VFF51 VFQ51 ENG71 1080p x265 10Bits T0M.mkv (4.0 GB)

Description


______________________________________________________________________________________________________________
Dredd 2012
Bluray · 1080p x265 10bit · OPUS VFF 5.1 VFQ 5.1 ENG 7.1
¯¯¯¯¯¯¯¯¯¯¯¯¯¯¯¯¯¯¯¯¯¯¯¯¯¯¯¯¯¯¯¯¯¯¯¯¯¯¯¯¯¯¯¯¯¯¯¯¯¯¯¯¯¯¯¯¯¯¯¯¯¯¯¯¯¯¯¯¯¯¯¯¯¯¯¯¯¯¯¯



Year : 2012
Country : United States, United Kingdom, India
Original, French, Quebec and English Title : Dredd
Director : Pete Travis
Writer : John Wagner, Carlos Ezquerra, Alex Garland
Music from : Paul Leonard-Morgan
Actors : Karl Urban, Olivia Thirlby, Lena Headey, Wood Harris, Langley Kirkwood, Junior Singo, Luke Tyler, Jason Cope, Domhnall Gleeson
Warrick Grier
Genre : Sci-Fi, Crime, Action, Thriller
Certificate : Not recommended for children under 12 years old
Budget : 45 000 000 $ · Recipe : 52 920 429 $ · ratio : 118 %
Link : Allociné 3,2 /5 · IMDB 7,1 /10 · TMDB 68 % · SensCritique 6,1 /10 · RottenTomatoes 80 % (72 %) · Wiki · Teaser




French Plot
L'Amérique est un désert irradié où s'érige une cité. Hors des murs d'enceinte, le désert, une Terre maudite . À l'intérieur des murs, qui s'étend de Boston à Washington , un immuable paysage de béton. 800 millions de gens vivent dans les ruines du vieux monde et les méga-structures du nouveau. Méga-blocs , Méga-autoroutes ... Mega City One . Se décomposant, s'étouffant, se brisant sous son propre poids. Des citoyens apeurés dans les rues. Les armes, les gangs… Seuls à lutter pour l'ordre dans le chaos, les hommes et les femmes du palais de justice . Jurés, Bourreaux : Juges .
Adaptation basée sur le comics : Judge Dredd créés par John Wagner et Carlos Ezquerra en 1977
T0M : Noir, violent, sans concession et aux images très soignées…
Déconseillé aux moins de 16 ans lors de sa diffusion télévisée française
Influences, Similar : RoboCop, RoboCop, Blade Runner, Altered Carbon, District 9, Blade Runner 2049



Saga
Year 1995 : Judge Dredd
Year 2012 : Dredd



If you enjoy and wish to support, please stay in seeding


Technical Details
¯¯¯¯¯¯¯¯¯¯¯¯¯¯¯¯¯¯¯¯¯¯¯¯¯¯¯¯¯¯¯¯¯¯¯¯¯¯¯¯¯¯¯¯¯¯¯¯¯¯¯¯¯¯¯¯¯¯¯¯¯¯¯¯¯¯¯¯¯¯¯¯¯¯¯¯¯¯¯¯¯¯¯¯¯¯¯¯¯¯¯¯¯¯¯¯¯¯¯¯
Media
Matroska 3,97 Gio 1 h35 mn 5924 Kbps
Video
HEVC/H265 1920 x800 @23.976 [email protected]@Main 10 bits 4935 Kbps VerySlow
Audio
True French 5.1 OPUS 290 Kbps 48KHz 16bits (-0,2 dB)
Quebec French 5.1 OPUS 290 Kbps 48KHz 16bits (-1,6 dB)
English (OV) 7.1 OPUS 386 Kbps 48KHz 16bits (-0,5 dB)
Subtitles
True French forced SRT
True French full SRT
True French forced PGS
True French full PGS
English title SRT
English full PGS
Chapters
True French, English
Screenshot

Origin
Bluray : AVC 1080p 28058 Kbps + Anglais 7.1 DTS-HDMA 2588 Kbps, VFQ 5.1 AC3 448 Kbps, VFF 5.1 DTS-HDMA 2349 Kbps [ONLY 4k]
Recommended Softwares
MPC-HC (ffdShow + LAV filters) or PotPlayer otherwise VLC

NFO
¯¯¯¯¯¯¯¯¯¯¯¯¯¯¯¯¯¯¯¯¯¯¯¯¯¯¯¯¯¯¯¯¯¯¯¯¯¯¯¯¯¯¯¯¯¯¯¯¯¯¯¯¯¯¯¯¯¯¯¯¯¯¯¯¯¯¯¯¯¯¯¯¯¯¯¯¯¯¯¯¯¯¯¯¯¯¯¯¯¯¯¯¯¯¯¯¯¯¯¯



General
Complete name : Dredd 2012 BR OPUS VFF51 VFQ51 ENG71 1080p x265 10Bits T0M.mkv
Format : Matroska
Format version : Version 4
File size : 3.97 GiB
Duration : 1 h 35 min
Overall bit rate : 5 924 kb/s
Movie name : Dredd 2012 de Pete Travis avec Karl Urban, Olivia Thirlby, Lena Headey, Wood Harris, Langley Kirkwood, Junior Singo, Luke Tyler, Jason Cope, Domhnall Gleeson, Warrick Grier. (allocine=141846,imdb=tt1343727,tmdb=49049) T0M / Dredd
ContentType : Movie
Description : The future America is an irradiated waste land. On its East Coast, running from Boston to Washington DC, lies Mega City One - a vast, violent metropolis where criminals rule the chaotic streets. The only force of order lies with the urban cops called "Judges" who possess the combined powers of judge, jury and instant executioner. Known and feared throughout the city, Dredd is the ultimate Judge, challenged with ridding the city of its latest scourge - a dangerous drug epidemic that has users of "Slo-Mo" experiencing reality at a fraction of its normal speed. During a routine day on the job, Dredd is assigned to train and evaluate Cassandra Anderson, a rookie with powerful psychic abilities thanks to a genetic mutation. A heinous crime calls them to a neighborhood where fellow Judges rarely dare to venture - a 200 storey vertical slum controlled by prostitute turned drug lord Ma-Ma and her ruthless clan. When they capture one of the clan's inner circle, Ma-Ma overtakes the compound's control center and wages a dirty, vicious war against the Judges that proves she will stop at nothing to protect her empire. With the body count climbing and no way out, Dredd and Anderson must confront the odds and engage in the relentless battle for their survival.
Encoded date : UTC 2023-05-26 15:27:07
Writing application : mkvmerge v75.0.0 ('Goliath') 64-bit
Writing library : libebml v1.4.4 + libmatroska v1.7.1
Original source form : Bluray
Cover : Yes
Attachments : Cover.jpg / Cover2.jpg / Cover3.jpg / Box.jpg / Cover.jpg / Cover2.jpg / Cover3.jpg / Box.jpg
ACTOR : Karl Urban, Olivia Thirlby, Lena Headey, Wood Harris, Langley Kirkwood, Junior Singo, Luke Tyler, Jason Cope, Domhnall Gleeson, Warrick Grier
ALLOCINE : film/fichefilm_gen_cfilm=141846.html
ARTIST : Pete Travis
COMPOSER : Paul Leonard-Morgan
COUNTRY : United States, United Kingdom, India
DIRECTOR : Pete Travis
GENRE : Sci-Fi, Crime, Action, Thriller
HD_VIDEO : 2
ILNG : English,True French,Quebec French
IMDB : tt1343727
MEDIA_TYPE : 9
ORIGINAL_TITLE : Dredd
Plot : The future America is an irradiated waste land. On its East Coast, running from Boston to Washington DC, lies Mega City One - a vast, violent metropolis where criminals rule the chaotic streets.
PlotOutline : The future America is an irradiated waste land. On its East Coast, running from Boston to Washington DC, lies Mega City One - a vast, violent metropolis where criminals rule the chaotic streets. The only force of order lies with the urban cops called "Judges" who possess the combined powers of judge, jury and instant executioner. Known and feared throughout the city, Dredd is the ultimate Judge, challenged with ridding the city of its latest scourge - a dangerous drug epidemic that has users of "Slo-Mo" experiencing reality at a fraction of its normal speed. During a routine day on the job, Dredd is assigned to train and evaluate Cassandra Anderson, a rookie with powerful psychic abilities thanks to a genetic mutation. A heinous crime calls them to a neighborhood where fellow Judges rarely dare to venture - a 200 storey vertical slum controlled by prostitute turned drug lord Ma-Ma and her ruthless clan. When they capture one of the clan's inner circle, Ma-Ma overtakes the compound's control center and wages a dirty, vicious war against the Judges that proves she will stop at nothing to protect her empire. With the body count climbing and no way out, Dredd and Anderson must confront the odds and engage in the relentless battle for their survival.
RATING : 7.1
SYNOPSIS : The future America is an irradiated waste land. On its East Coast, running from Boston to Washington DC, lies Mega City One - a vast, violent metropolis where criminals rule the chaotic streets.
TCON : Sci-Fi, Crime, Action, Thriller
TIT2 : Dredd
TMDB : movie/49049
WRITTEN_BY : John Wagner, Carlos Ezquerra, Alex Garland
YEAR : 2012
date : 2012
hdvd : 2
language : English,True French,Quebec French
media_type : Movie

Video
ID : 1
Format : HEVC
Format/Info : High Efficiency Video Coding
Format profile : Main [email protected]@Main
Codec ID : V_MPEGH/ISO/HEVC
Duration : 1 h 35 min
Bit rate : 4 935 kb/s
Width : 1 920 pixels
Height : 800 pixels
Display aspect ratio : 2.40:1
Frame rate mode : Constant
Frame rate : 23.976 (23976/1000) FPS
Original frame rate : 23.976 (24000/1001) FPS
Color space : YUV
Chroma subsampling : 4:2:0
Bit depth : 10 bits
Bits/(Pixel*Frame) : 0.134
Stream size : 3.30 GiB (83%)
Title : HEVC 1920x800 @23.976 x265 [email protected]@Main 10bits Q19.8 veryslow 1650mn
Writing library : x265 1.9:[Windows][GCC 4.9.2][64 bit] 10bit
Encoding settings : wpp / ctu=64 / min-cu-size=8 / max-tu-size=32 / tu-intra-depth=3 / tu-inter-depth=3 / me=3 / subme=4 / merange=57 / rect / amp / max-merge=4 / temporal-mvp / no-early-skip / rdpenalty=0 / no-tskip / no-tskip-fast / strong-intra-smoothing / no-lossless / no-cu-lossless / no-constrained-intra / no-fast-intra / open-gop / no-temporal-layers / interlace=0 / keyint=240 / min-keyint=24 / scenecut=40 / rc-lookahead=40 / lookahead-slices=0 / bframes=8 / bframe-bias=0 / b-adapt=2 / ref=5 / limit-refs=1 / limit-modes / weightp / weightb / aq-mode=1 / qg-size=32 / aq-strength=1.00 / cbqpoffs=0 / crqpoffs=0 / rd=6 / psy-rd=2.00 / rdoq-level=2 / psy-rdoq=1.00 / signhide / deblock / sao / no-sao-non-deblock / b-pyramid / cutree / no-intra-refresh / rc=crf / crf=19.8 / qcomp=0.60 / qpmin=0 / qpmax=51 / qpstep=4 / ipratio=1.40 / pbratio=1.30
Default : Yes
Forced : No
Color range : Limited
Color primaries : BT.709
Transfer characteristics : BT.709
Matrix coefficients : BT.709

Audio #1
ID : 2
Format : Opus
Codec ID : A_OPUS
Duration : 1 h 35 min
Bit rate : 290 kb/s
Channel(s) : 6 channels
Channel layout : L R C Lb Rb LFE
Sampling rate : 48.0 kHz
Frame rate : 16.667 FPS (2880 SPF)
Compression mode : Lossy
Delay relative to video : -5 ms
Stream size : 199 MiB (5%)
Title : Français 5.1 OPUS 288kbps 48khz 16bits (-0.2dB)
Language : French (FR)
Default : Yes
Forced : No

Audio #2
ID : 3
Format : Opus
Codec ID : A_OPUS
Duration : 1 h 35 min
Bit rate : 290 kb/s
Channel(s) : 6 channels
Channel layout : L R C Lb Rb LFE
Sampling rate : 48.0 kHz
Frame rate : 16.667 FPS (2880 SPF)
Compression mode : Lossy
Delay relative to video : -5 ms
Stream size : 199 MiB (5%)
Title : Québécois 5.1 OPUS 288kbps 48khz 16bits (-1.6dB)
Language : French (CA)
Default : No
Forced : No

Audio #3
ID : 4
Format : Opus
Codec ID : A_OPUS
Duration : 1 h 35 min
Bit rate : 386 kb/s
Channel(s) : 8 channels
Channel layout : L R C Ls Rs Lb Rb LFE
Sampling rate : 48.0 kHz
Frame rate : 16.667 FPS (2880 SPF)
Compression mode : Lossy
Delay relative to video : -5 ms
Stream size : 264 MiB (7%)
Title : English 7.1 OPUS 384kbps 48khz 16bits (-0.5dB)
Language : English
Default : No
Forced : No

Text #1
ID : 5
Format : UTF-8
Codec ID : S_TEXT/UTF8
Codec ID/Info : UTF-8 Plain Text
Duration : 1 h 35 min
Bit rate : 1 b/s
Frame rate : 0.004 FPS
Count of elements : 21
Stream size : 1.09 KiB (0%)
Title : Français forcé (Passages)
Language : French (FR)
Default : Yes
Forced : Yes

Text #2
ID : 6
Format : UTF-8
Codec ID : S_TEXT/UTF8
Codec ID/Info : UTF-8 Plain Text
Duration : 1 h 35 min
Bit rate : 35 b/s
Frame rate : 0.152 FPS
Count of elements : 874
Stream size : 24.8 KiB (0%)
Title : Français complet (Tous le film)
Language : French (FR)
Default : No
Forced : No

Text #3
ID : 7
Format : PGS
Muxing mode : zlib
Codec ID : S_HDMV/PGS
Codec ID/Info : Picture based subtitle format used on BDs/HD-DVDs
Duration : 1 h 12 min
Bit rate : 149 b/s
Frame rate : 0.003 FPS
Count of elements : 12
Stream size : 79.7 KiB (0%)
Title : Français forcé (Passages) PGS
Language : French (FR)
Default : No
Forced : Yes

Text #4
ID : 8
Format : PGS
Muxing mode : zlib
Codec ID : S_HDMV/PGS
Codec ID/Info : Picture based subtitle format used on BDs/HD-DVDs
Duration : 1 h 34 min
Bit rate : 21.1 kb/s
Frame rate : 0.303 FPS
Count of elements : 1724
Stream size : 14.3 MiB (0%)
Title : Français complet (Tous le film) PGS
Language : French (FR)
Default : No
Forced : No

Text #5
ID : 9
Format : UTF-8
Codec ID : S_TEXT/UTF8
Codec ID/Info : UTF-8 Plain Text
Duration : 1 h 35 min
Bit rate : 0 b/s
Frame rate : 0.000 FPS
Count of elements : 2
Stream size : 462 Bytes (0%)
Title : English title
Language : English
Default : No
Forced : Yes

Text #6
ID : 10
Format : PGS
Muxing mode : zlib
Codec ID : S_HDMV/PGS
Codec ID/Info : Picture based subtitle format used on BDs/HD-DVDs
Duration : 1 h 28 min
Bit rate : 26.8 kb/s
Frame rate : 0.285 FPS
Count of elements : 1508
Stream size : 16.9 MiB (0%)
Title : English full (All the movie) PGS
Language : English
Default : No
Forced : No

Menu
00:00:00.000 : 01 - 00:00:00 - fr:Mega City One - en:Mega City One
00:05:43.559 : 02 - 00:05:43 - fr:La négociation est terminée - en:Negotiation Is Over
00:08:14.668 : 03 - 00:08:14 - fr:La recrue - en:The Rookie
00:14:17.364 : 04 - 00:14:17 - fr:Peach Trees - en:Peach Trees
00:19:42.689 : 05 - 00:19:42 - fr:Vous n'avez pas l'air prêt - en:You Don't Look Ready
00:24:09.330 : 06 - 00:24:09 - fr:Protocol de Guerre - en:War Protocol
00:27:21.064 : 07 - 00:27:21 - fr:Piégé - en:Trapped
00:36:01.292 : 08 - 00:36:01 - fr:Cathy - en:Cathy
00:39:49.019 : 09 - 00:39:49 - fr:Verrouillage total - en:Full Lockdown
00:48:26.953 : 10 - 00:48:26 - fr:Laisse le moi - en:Leave It To Me
00:54:39.617 : 11 - 00:54:39 - fr:Se défendre, se cacher ou attaquer ? - en:Defend, Hide or Attack?
01:00:57.244 : 12 - 01:00:57 - fr:Je suis la loi - en:I Am The Law
01:06:30.577 : 13 - 01:06:30 - fr:Renforts - en:Backup
01:12:01.658 : 14 - 01:12:01 - fr:Hachoir à viande - en:Meat Grinder
01:20:10.271 : 15 - 01:20:10 - fr:Ma-Ma - en:Ma-Ma
01:29:15.905 : 16 - 01:29:15 - fr:Générique de fin - en:End Credits

Related Torrents

torrent name size uploader age seed leech
523.1 MB g3m696 3
years
89 9
1.5 GB YIFY 11
years
80 1
4.2 GB QxR 5
years
66 98
1.6 GB krishh1337 5
years
65 30
2.6 GB dAV1nci 2
years
59 29


Download torrent
4 GB
seeders:38
leechers:10
Dredd 2012 BR OPUS VFF51 VFQ51 ENG71 1080p x265 10Bits T0M (Judge Dredd 2)


Trackers

tracker name
udp://tracker.opentrackr.org:1337/announce
udp://inferno.demonoid.is:3391/announce
http://vps02.net.orel.ru:80/announce
udp://tracker.moeking.me:6969/announce
udp://engplus.ru:6969/announce
udp://retracker.lanta-net.ru:2710/announce
udp://tracker.tiny-vps.com:6969/announce
http://tracker.lelux.fi:80/announce
udp://edu.uifr.ru:6969/announce
http://tracker.noobsubs.net:80/announce
https://tracker.lelux.fi:443/announce
udp://tracker.lelux.fi:6969/announce
udp://opentor.org:2710
udp://tracker.uw0.xyz:6969/announce
http://explodie.org:6969/announce
µTorrent compatible trackers list

Download torrent
4 GB
seeders:38
leechers:10
Dredd 2012 BR OPUS VFF51 VFQ51 ENG71 1080p x265 10Bits T0M (Judge Dredd 2)


Torrent hash: 3EA30A2BE5AE160CD3D94A17E4C0C1442A9D8508