Dune.2021.1080p.WEBRip.x264

seeders: 5133
leechers: 1218
updated:
Added by TheMorozko in Movies > HD

Download Fast Safe Anonymous
movies, software, shows...
Summary:

Paul Atreides, a brilliant and gifted young man born into a great destiny beyond his understanding, must travel to the most dangerous planet in the universe to ensure the future of his family and his people. As malevolent forces explode into conflict over the planet's exclusive supply of the most precious resource in existence-a commodity capable of unlocking humanity's greatest potential-only those who can conquer their fear will survive.

Files

Dune.2021.1080p.WEBRip.x264-RARBG
  • Dune.2021.1080p.WEBRip.x264-RARBG.mp4 (3.0 GB)
  • RARBG.txt (0.0 KB)
  • RARBG_DO_NOT_MIRROR.exe (0.1 KB)
  • Subs
    • 2_English.srt (105.6 KB)
    • 3_English.srt (81.9 KB)
    • 4_Spanish.srt (3.1 KB)
    • 5_Spanish.srt (3.1 KB)

Description

Screens... (click to enlarge):








Infolink -> https://www.imdb.com/title/tt1160419/

Mediainfo

Quote:

Video
ID : 1
Format : AVC
Format/Info : Advanced Video Codec
Format profile : [email protected]
Format settings : CABAC / 4 Ref Frames
Format settings, CABAC : Yes
Format settings, Reference frames : 4 frames
Codec ID : avc1
Codec ID/Info : Advanced Video Coding
Duration : 2 h 35 min
Bit rate : 2 500 kb/s
Width : 1 920 pixels
Height : 800 pixels
Display aspect ratio : 2.40:1
Frame rate mode : Constant
Frame rate : 23.976 (23976/1000) FPS
Color space : YUV
Chroma subsampling : 4:2:0
Bit depth : 8 bits
Scan type : Progressive
Bits/(Pixel*Frame) : 0.068
Stream size : 2.71 GiB (92%)
Writing library : x264 core 152 r2851M ba24899
Encoding settings : cabac=1 / ref=4 / deblock=1:-1:-1 / analyse=0x3:0x113 / me=umh / subme=9 / psy=1 / psy_rd=1.00:0.15 / mixed_ref=1 / me_range=24 / chroma_me=1 / trellis=2 / 8x8dct=1 / cqm=0 / deadzone=21,11 / fast_pskip=1 / chroma_qp_offset=-3 / threads=16 / lookahead_threads=4 / sliced_threads=0 / nr=0 / decimate=1 / interlaced=0 / bluray_compat=0 / constrained_intra=0 / bframes=3 / b_pyramid=2 / b_adapt=2 / b_bias=0 / direct=3 / weightb=1 / open_gop=0 / weightp=2 / keyint=250 / keyint_min=25 / scenecut=40 / intra_refresh=0 / rc_lookahead=50 / rc=2pass / mbtree=1 / bitrate=2500 / ratetol=1.0 / qcomp=0.60 / qpmin=0 / qpmax=69 / qpstep=4 / cplxblur=20.0 / qblur=0.5 / vbv_maxrate=31250 / vbv_bufsize=31250 / nal_hrd=none / filler=0 / ip_ratio=1.40 / aq=3:1.00
Encoded date : UTC 2021-10-21 23:42:23
Tagged date : UTC 2021-10-21 23:42:23
Codec configuration box : avcC

Audio
ID : 2
Format : AAC LC
Format/Info : Advanced Audio Codec Low Complexity
Codec ID : mp4a-40-2
Duration : 2 h 35 min
Bit rate mode : Constant
Bit rate : 224 kb/s
Channel(s) : 6 channels
Channel layout : C L R Ls Rs LFE
Sampling rate : 48.0 kHz
Frame rate : 46.875 FPS (1024 SPF)
Compression mode : Lossy
Stream size : 249 MiB (8%)
Language : English
Default : Yes
Alternate group : 1
Encoded date : UTC 2021-10-21 23:42:23
Tagged date : UTC 2021-10-21 23:42:23

Related Torrents

torrent name size uploader age seed leech
10.6 GB Cristie 1
month
10692 2445
4.4 GB TGxGoodies 1
month
4813 2389
9.8 GB TheMorozko 1
month
3799 756
896.6 MB TGxGoodies 1
month
2392 620
5 GB Cristie 1
month
2315 664


Download torrent
3 GB
seeders:5133
leechers:1218
Dune.2021.1080p.WEBRip.x264


Trackers

tracker name
http://tracker.trackerfix.com:80/announce
udp://9.rarbg.me:2940/announce
udp://9.rarbg.to:2770/announce
udp://tracker.thinelephant.org:12730/announce
udp://tracker.slowcheetah.org:14750/announce
µTorrent compatible trackers list

Download torrent
3 GB
seeders:5133
leechers:1218
Dune.2021.1080p.WEBRip.x264


Torrent hash: D07E3D87D87EB0A3AF8458A745EFECD4DA333FC1