Eternals.2021.2160p.WEB-DL.x265.10bit.HDR.DDP5.1.Atmos-NOGRP

seeders: 2270
leechers: 1524
updated:
Added by TheMorozko in Movies > HEVC/x265

Download Fast Safe Anonymous
movies, software, shows...

Files

Eternals.2021.2160p.WEB-DL.x265.10bit.HDR.DDP5.1.Atmos-NOGRP
  • Eternals.2021.2160p.WEB-DL.x265.10bit.HDR.DDP5.1.Atmos-NOGRP.mkv (27.3 GB)
  • RARBG.txt (0.0 KB)

Description

Screens... (click to enlarge):






Infolink -> https://www.imdb.com/title/tt9032400/

Mediainfo

Quote:

Video
ID : 1
Format : HEVC
Format/Info : High Efficiency Video Coding
Format profile : Main [email protected]@High
HDR format : SMPTE ST 2086, HDR10 compatible
Codec ID : V_MPEGH/ISO/HEVC
Duration : 2 h 35 min
Bit rate : 24.3 Mb/s
Width : 3 840 pixels
Height : 1 608 pixels
Display aspect ratio : 2.40:1
Frame rate mode : Constant
Frame rate : 23.976 (24000/1001) FPS
Color space : YUV
Chroma subsampling : 4:2:0 (Type 2)
Bit depth : 10 bits
Bits/(Pixel*Frame) : 0.164
Stream size : 26.5 GiB (97%)
Default : Yes
Forced : No
Color range : Limited
Color primaries : BT.2020
Transfer characteristics : PQ
Matrix coefficients : BT.2020 non-constant
Mastering display color primaries : BT.2020
Mastering display luminance : min: 0.0050 cd/m2, max: 1000 cd/m2
Maximum Content Light Level : 397 cd/m2
Maximum Frame-Average Light Level : 139 cd/m2

Audio
ID : 2
Format : E-AC-3 JOC
Format/Info : Enhanced AC-3 with Joint Object Coding
Commercial name : Dolby Digital Plus with Dolby Atmos
Codec ID : A_EAC3
Duration : 2 h 35 min
Bit rate mode : Constant
Bit rate : 768 kb/s
Channel(s) : 6 channels
Channel layout : L R C LFE Ls Rs
Sampling rate : 48.0 kHz
Frame rate : 31.250 FPS (1536 SPF)
Compression mode : Lossy
Stream size : 856 MiB (3%)
Language : English
Service kind : Complete Main
Default : Yes
Forced : No
Complexity index : 16
Number of dynamic objects : 15
Bed channel count : 1 channel
Bed channel configuration : LFE

Text #1
ID : 3
Format : UTF-8
Codec ID : S_TEXT/UTF8
Codec ID/Info : UTF-8 Plain Text
Duration : 2 h 33 min
Bit rate : 41 b/s
Count of elements : 1784
Stream size : 46.6 KiB (0%)
Language : English
Default : Yes
Forced : No

Text #2
ID : 4
Format : UTF-8
Codec ID : S_TEXT/UTF8
Codec ID/Info : UTF-8 Plain Text
Duration : 2 h 33 min
Bit rate : 51 b/s
Count of elements : 2210
Stream size : 58.2 KiB (0%)
Title : SDH
Language : English
Default : No
Forced : No

Text #3
ID : 5
Format : UTF-8
Codec ID : S_TEXT/UTF8
Codec ID/Info : UTF-8 Plain Text
Duration : 2 h 35 min
Bit rate : 41 b/s
Count of elements : 1645
Stream size : 47.6 KiB (0%)
Language : Spanish
Default : No
Forced : No

Text #4
ID : 6
Format : UTF-8
Codec ID : S_TEXT/UTF8
Codec ID/Info : UTF-8 Plain Text
Duration : 2 h 35 min
Bit rate : 2 b/s
Count of elements : 116
Stream size : 3.13 KiB (0%)
Title : FORCED
Language : Spanish
Default : No
Forced : No



Download torrent
27.3 GB
seeders:2270
leechers:1524
Eternals.2021.2160p.WEB-DL.x265.10bit.HDR.DDP5.1.Atmos-NOGRP


Trackers

tracker name
http://tracker.trackerfix.com:80/announce
udp://9.rarbg.me:2730/announce
udp://9.rarbg.to:2850/announce
udp://tracker.fatkhoala.org:13780/announce
udp://tracker.tallpenguin.org:15780/announce
µTorrent compatible trackers list

Download torrent
27.3 GB
seeders:2270
leechers:1524
Eternals.2021.2160p.WEB-DL.x265.10bit.HDR.DDP5.1.Atmos-NOGRP


Torrent hash: CB434C9025A5255ED17454C97C0893998A1AD72F