Fatman.2020.1080p.WEBRip.DDP2.0.x264-NOGRP

seeders: 3279
leechers: 652
updated:
Added by prudence25 in Movies > HD

Download Fast Safe Anonymous
movies, software, shows...
Summary:

A rowdy, unorthodox Santa Claus is fighting to save his declining business. Meanwhile, Billy, a neglected and precocious 12 year old, hires a hit man to kill Santa after receiving a lump of coal in his stocking.

Files

Fatman.2020.1080p.WEBRip.DDP2.0.x264-NOGRP
  • Fatman.2020.1080p.WEBRip.DDP2.0.x264-NOGRP.mkv (4.5 GB)
  • RARBG.txt (0.0 KB)

Description

https://www.imdb.com/title/tt10310140/


Code:

Video
ID : 1
Format : AVC
Format/Info : Advanced Video Codec
Format profile : [email protected]
Format settings : CABAC / 4 Ref Frames
Format settings, CABAC : Yes
Format settings, Reference frames : 4 frames
Codec ID : V_MPEG4/ISO/AVC
Duration : 1 h 35 min
Bit rate mode : Constant
Bit rate : 6 470 kb/s
Nominal bit rate : 10 000 kb/s
Width : 1 920 pixels
Height : 800 pixels
Display aspect ratio : 2.40:1
Frame rate mode : Constant
Frame rate : 25.000 FPS
Color space : YUV
Chroma subsampling : 4:2:0
Bit depth : 8 bits
Scan type : Progressive
Bits/(Pixel*Frame) : 0.168
Stream size : 4.32 GiB (97%)
Language : English
Default : Yes
Forced : No
Color range : Limited
Color primaries : BT.709
Transfer characteristics : BT.709
Matrix coefficients : BT.709

Audio
ID : 2
Format : E-AC-3
Format/Info : Enhanced AC-3
Commercial name : Dolby Digital Plus
Codec ID : A_EAC3
Duration : 1 h 35 min
Bit rate mode : Constant
Bit rate : 224 kb/s
Channel(s) : 2 channels
Channel layout : L R
Sampling rate : 48.0 kHz
Frame rate : 31.250 FPS (1536 SPF)
Compression mode : Lossy
Stream size : 153 MiB (3%)
Language : English
Service kind : Complete Main
Default : Yes
Forced : No

Text
ID : 3
Format : UTF-8
Codec ID : S_TEXT/UTF8
Codec ID/Info : UTF-8 Plain Text
Duration : 1 h 31 min
Bit rate : 46 b/s
Count of elements : 974
Stream size : 31.3 KiB (0%)
Language : English
Default : Yes
Forced : No

Related Torrents

torrent name size uploader age seed leech
1.8 GB prudence25 8
days
1888 312
796.9 MB mazemaze16 9
days
1764 355
1.9 GB prudence25 4
days
425 44
741.1 MB bone111 8
days
181 35
4.5 GB mazemaze16 9
days
137 34


Download torrent
4.5 GB
seeders:3279
leechers:652
Fatman.2020.1080p.WEBRip.DDP2.0.x264-NOGRP


Trackers

tracker name
http://tracker.trackerfix.com:80/announce
udp://9.rarbg.me:2890/announce
udp://9.rarbg.to:2990/announce
µTorrent compatible trackers list

Download torrent
4.5 GB
seeders:3279
leechers:652
Fatman.2020.1080p.WEBRip.DDP2.0.x264-NOGRP


Torrent hash: 211979D72FD23602AE7C3F918B92BA82B3DC69E0