Furiosa A Mad Max Saga (2024) 720p HQ HD-TSRip AAC x264 - SHADOW [ProtonMovies]

seeders: 0
leechers: 0
updated:
Added by AlejandroAXL in Movies > HD

Download Fast Safe Anonymous
movies, software, shows...
Summary:

As the world fell, young Furiosa is snatched from the Green Place of Many Mothers and falls into the hands of a great Biker Horde led by the Warlord Dementus. Sweeping through the Wasteland they come across the Citadel presided over by The Immortan Joe. While the two Tyrants war for dominance, Furiosa must survive many trials as she puts together the means to find her way home.

Files

Furiosa A Mad Max Saga (2024) 720p HQ HD-TSRip AAC x264 - SHADOW [ProtonMovies]
  • Furiosa A Mad Max Saga (2024) 720p HQ HDTS AAC x264 - SHADOW [ProtonMovies].mkv (1.2 GB)

Description

"Show your support to ProtonMovies"




********************************


"Show your support to ProtonMovies"


"@Team Shadow"


"AlejandroAXL"


We Keep All Torrents. In case of re-seed, please pm Or Comment On Torrent For Re-Seed  


********************************



Format                                   : Matroska
Format version                           : Version 4
File size                                : 1.24 GiB
Duration                                 : 2 h 18 min
Overall bit rate                         : 1 281 kb/s
Frame rate                               : 24.000 FPS
Movie name                               : Released By - SAHADOW
Encoded date                             : 2024-05-29 15:25:09 UTC
Writing application                      : mkvmerge v83.0 ('Circle Of Friends') 64-bit
Writing library                          : libebml v1.4.5 + libmatroska v1.7.1

Video
ID                                       : 1
Format                                   : AVC
Format/Info                              : Advanced Video Codec
Format profile                           : [email protected]
Format settings                          : CABAC / 4 Ref Frames
Format settings, CABAC                   : Yes
Format settings, Reference frames        : 4 frames
Codec ID                                 : V_MPEG4/ISO/AVC
Duration                                 : 2 h 18 min
Bit rate                                 : 1 150 kb/s
Width                                    : 1 280 pixels
Height                                   : 546 pixels
Display aspect ratio                     : 2.35:1
Frame rate mode                          : Constant
Frame rate                               : 24.000 FPS
Color space                              : YUV
Chroma subsampling                       : 4:2:0
Bit depth                                : 8 bits
Scan type                                : Progressive
Bits/(Pixel*Frame)                       : 0.069
Stream size                              : 1.11 GiB (90%)
Writing library                          : x264 core 164
Encoding settings                        : cabac=1 / ref=4 / deblock=1:-1:-1 / analyse=0x3:0x133 / me=umh / subme=9 / psy=1 / psy_rd=1.00:0.15 / mixed_ref=1 / me_range=24 / chroma_me=1 / trellis=2 / 8x8dct=1 / cqm=0 / deadzone=21,11 / fast_pskip=0 / chroma_qp_offset=-3 / threads=17 / lookahead_threads=1 / sliced_threads=0 / nr=0 / decimate=1 / interlaced=0 / bluray_compat=0 / constrained_intra=0 / bframes=3 / b_pyramid=2 / b_adapt=2 / b_bias=0 / direct=3 / weightb=1 / open_gop=0 / weightp=2 / keyint=250 / keyint_min=23 / scenecut=40 / intra_refresh=0 / rc_lookahead=60 / rc=2pass / mbtree=1 / bitrate=1150 / ratetol=1.0 / qcomp=0.60 / qpmin=0 / qpmax=69 / qpstep=4 / cplxblur=20.0 / qblur=0.5 / vbv_maxrate=31250 / vbv_bufsize=31250 / nal_hrd=none / filler=0 / ip_ratio=1.40 / aq=1:1.00
Default                                  : Yes
Forced                                   : No

Audio
ID                                       : 2
Format                                   : AAC LC
Format/Info                              : Advanced Audio Codec Low Complexity
Codec ID                                 : A_AAC-2
Duration                                 : 2 h 18 min
Bit rate                                 : 129 kb/s
Channel(s)                               : 2 channels
Channel layout                           : L R
Sampling rate                            : 48.0 kHz
Frame rate                               : 46.875 FPS (1024 SPF)
Compression mode                         : Lossy
Delay relative to video                  : -21 ms
Stream size                              : 128 MiB (10%)
Default                                  : Yes
Forced                                   : No



















Related Torrents

torrent name size uploader age seed leech
4.1 GB TGxGoodies 21
days
1314 683
2.2 GB RaptaG 22
days
924 697
2.9 GB mazemaze16 21
days
667 210
8.9 GB mazemaze16 20
days
633 151
2.9 GB BedBug 21
days
454 353


Download torrent
1.2 GB
seeders:0
leechers:0
Furiosa A Mad Max Saga (2024) 720p HQ HD-TSRip AAC x264 - SHADOW [ProtonMovies]


Trackers

tracker name
udp://tracker.opentrackr.org:1337/announce
udp://explodie.org:6969/announce
https://tracker.tamersunion.org:443/announce
https://tracker.gbitt.info:443/announce
http://tracker.gbitt.info:80/announce
udp://tracker.tiny-vps.com:6969/announce
udp://tracker.theoks.net:6969/announce
udp://tracker.dump.cl:6969/announce
udp://tracker.bittor.pw:1337/announce
https://tracker.bt4g.com:443/announce
udp://open.demonii.com:1337/announce
udp://open.stealth.si:80/announce
udp://tracker.torrent.eu.org:451/announce
http://open.acgnxtracker.com:80/announce
udp://bubu.mapfactor.com:6969/announce
https://tracker.yemekyedim.com:443/announce
udp://ec2-18-191-163-220.us-east-2.compute.amazonaws.com:6969/announce
udp://open.demonoid.ch:6969/announce
µTorrent compatible trackers list

Download torrent
1.2 GB
seeders:0
leechers:0
Furiosa A Mad Max Saga (2024) 720p HQ HD-TSRip AAC x264 - SHADOW [ProtonMovies]


Torrent hash: 975DB169991BB491C137382DA9E7E70C71B27750