Gadar Ek Prem Katha 2001 REMASTERED 1080p ZEE5 WEBRip x265 Hindi DDP2.0 ESub - SP3LL

seeders: 14
leechers: 19
updated:
Added by sp3ll in Movies > Bollywood

Download Fast Safe Anonymous
movies, software, shows...
Summary:

Amongst the communal riots that erupt in the city, Tara shelters a wayward Sakina from a crazed mob and a bond that blossoms into love is created. The two eventually get married and have a son. The happy family, now living in Amritsar, gets the shock of their lives when Sakina learns that her father (Amrish Puri), whom she previously believed died in the riots back in Amritsar, is still alive after seeing his picture in a tattered, old newspaper. Upon contacting him, Sakina's father, now the mayor of Lahore in Pakistan, arranges for his daughter to arrive in Lahore to see him. Sakina leaves for Lahore minus Tara and her son, and upon reaching the city, learns of her father's plans for her - plans that include forcing Sakina to forget about her family and start life anew in Pakistan. Then begins an extraordinary journey which will lead Tara to cross the border into Pakistan to find his love Sakina

Files

Gadar Ek Prem Katha 2001 REMASTERED 1080p ZEE5 WEBRip x265 Hindi DDP2.0 ESub - SP3LL
  • Gadar Ek Prem Katha 2001 REMASTERED 1080p ZEE5 WEBRip x265 Hindi DDP2.0 ESub - SP3LL.mkv (4.2 GB)
  • Sample.mkv (25.8 MB)

Description




Release Title
Gadar Ek Prem Katha 2001 REMASTERED 1080p ZEE5 WEBRip x265 Hindi DDP2.0 ESub - SP3LL



IMDB Link
https://www.imdb.com/title/tt0284137/















Quote:

General
Complete name : Gadar Ek Prem Katha 2001 REMASTERED 1080p ZEE5 WEBRip x265 Hindi DDP2.0 ESub - SP3LL.mkv
Format : Matroska
Format version : Version 4
File size : 4.18 GiB
Duration : 3 h 2 min
Overall bit rate : 3 280 kb/s
Movie name : Gadar Ek Prem Katha 2001 REMASTERED 1080p ZEE5 WEBRip x265 Hindi DDP2.0 ESub - SP3LL
Encoded date : UTC 2023-06-22 03:09:26
Writing application : mkvmerge v74.0.0 ('You Oughta Know') 64-bit
Writing library : libebml v1.4.4 + libmatroska v1.7.1

Video
ID : 1
Format : HEVC
Format/Info : High Efficiency Video Coding
Format profile : Main [email protected]@High
Codec ID : V_MPEGH/ISO/HEVC
Duration : 3 h 2 min
Bit rate : 3 053 kb/s
Width : 1 920 pixels
Height : 816 pixels
Display aspect ratio : 2.35:1
Frame rate mode : Variable
Frame rate : 24.000 FPS
Color space : YUV
Chroma subsampling : 4:2:0
Bit depth : 10 bits
Bits/(Pixel*Frame) : 0.081
Stream size : 3.89 GiB (93%)
Default : Yes
Forced : No
Color range : Limited
Color primaries : BT.709
Transfer characteristics : BT.709
Matrix coefficients : BT.709

Audio
ID : 2
Format : E-AC-3
Format/Info : Enhanced AC-3
Commercial name : Dolby Digital Plus
Codec ID : A_EAC3
Duration : 3 h 2 min
Bit rate mode : Constant
Bit rate : 224 kb/s
Channel(s) : 2 channels
Channel layout : L R
Sampling rate : 48.0 kHz
Frame rate : 31.250 FPS (1536 SPF)
Compression mode : Lossy
Stream size : 292 MiB (7%)
Language : Hindi
Service kind : Complete Main
Default : No
Forced : No

Text
ID : 3
Format : UTF-8
Codec ID : S_TEXT/UTF8
Codec ID/Info : UTF-8 Plain Text
Duration : 2 h 57 min
Bit rate : 44 b/s
Frame rate : 0.184 FPS
Count of elements : 1960
Stream size : 58.3 KiB (0%)
Title : English
Language : English
Default : No
Forced : No




Related Torrents

torrent name size uploader age seed leech
1.5 GB iMMoRTaL69 1
year
52 30
2.2 GB Sungeorge 5
years
26 13
2.1 GB emstone 2
years
19 8
3.8 GB MrX123 9
months
16 9
1.4 GB sp3ll 1
year
9 13


Download torrent
4.2 GB
seeders:14
leechers:19
Gadar Ek Prem Katha 2001 REMASTERED 1080p ZEE5 WEBRip x265 Hindi DDP2.0 ESub - SP3LL


Trackers

tracker name
udp://exodus.desync.com:6969/announce
udp://tracker.opentrackr.org:1337/announce
https://inferno.demonoid.is/announce
udp://open.stealth.si:80/announce
udp://tracker.moeking.me:6969/announce
udp://p4p.arenabg.com:1337/announce
http://tracker.files.fm:6969/announce
http://vps02.net.orel.ru:80/announce
udp://fe.dealclub.de:6969/announce
http://tracker.bt4g.com:2095/announce
udp://tracker.openbittorrent.com:6969/announce
https://tracker.loligirl.cn:443/announce
udp://tracker.filemail.com:6969/announce
http://tracker.mywaifu.best:6969/announce
µTorrent compatible trackers list

Download torrent
4.2 GB
seeders:14
leechers:19
Gadar Ek Prem Katha 2001 REMASTERED 1080p ZEE5 WEBRip x265 Hindi DDP2.0 ESub - SP3LL


Torrent hash: 5A8BA289A0D3F1930332CA039EF51CB2240F915A