Game of Thrones S08E01 WEBRip Xvid Ac3 - 652 MB

seeders: 17
leechers: 13
updated:
Added by Simple2018 in TV > HD

Download Fast Safe Anonymous
movies, software, shows...
Summary:

The Great War has come, the Wall has fallen and the Night King's army of the dead marches towards Westeros. The end is here, but who will take the Iron Throne?

Files

  • Game of Thrones S08E01 WEBRip Xvid Ac3 - 652 MB.mkv (652.8 MB)

Description

Game of Thrones S08E01 WEBRip Xvid Ac3 - 652 MB



























Media Information


IMDB : https://www.imdb.com/title/tt0944947/



General


Format                                   : Matroska
Format version                           : Version 4
File size                                : 653 MiB
Duration                                 : 1 h 18 min
Overall bit rate                         : 1 165 kb/s
Movie name                               : Visit : Filmmaza.org
Encoded date                             : UTC 2019-04-15 02:54:35
Writing application                      : mkvmerge v20.0.0 ('I Am The Sun') 64-bit
Writing library                          : libebml v1.3.5 + libmatroska v1.4.8


Video


ID                                       : 1
Format                                   : MPEG-4 Visual
Format profile                           : Advanced [email protected]
Format settings                          : BVOP2
Format settings, BVOP                    : 2
Format settings, QPel                    : No
Format settings, GMC                     : No warppoints
Format settings, Matrix                  : Default (MPEG)
Muxing mode                              : Packed bitstream
Codec ID                                 : V_MS/VFW/FOURCC / XVID
Codec ID/Hint                            : XviD
Duration                                 : 55 min 45 s
Bit rate                                 : 1 187 kb/s
Width                                    : 720 pixels
Height                                   : 404 pixels
Display aspect ratio                     : 16:9
Frame rate mode                          : Constant
Frame rate                               : 23.976 (24000/1001) FPS
Original frame rate                      : 23.976 (23976/1000) FPS
Color space                              : YUV
Chroma subsampling                       : 4:2:0
Bit depth                                : 8 bits
Scan type                                : Progressive
Compression mode                         : Lossy
Bits/(Pixel*Frame)                       : 0.170
Stream size                              : 473 MiB (73%)
Title                                    : Filmmaza.org
Writing library                          : XviD 64
Language                                 : English
Default                                  : Yes
Forced                                   : Yes


Audio


ID                                       : 2
Format                                   : AC-3
Format/Info                              : Audio Coding 3
Commercial name                          : Dolby Digital
Codec ID                                 : A_AC3
Duration                                 : 55 min 45 s
Bit rate mode                            : Constant
Bit rate                                 : 448 kb/s
Channel(s)                               : 6 channels
Channel layout                           : L R C LFE Ls Rs
Sampling rate                            : 48.0 kHz
Frame rate                               : 31.250 FPS (1536 SPF)
Bit depth                                : 16 bits
Compression mode                         : Lossy
Stream size                              : 179 MiB (27%)
Title                                    : Filmmaza.org
Language                                 : English
Service kind                             : Complete Main
Default                                  : Yes
Forced                                   : Yes


Text #1


ID                                       : 3
Format                                   : UTF-8
Codec ID                                 : S_TEXT/UTF8
Codec ID/Info                            : UTF-8 Plain Text
Duration                                 : 55 min 41 s
Bit rate                                 : 45 b/s
Count of elements                        : 665
Stream size                              : 18.4 KiB (0%)
Title                                    : Filmmaza.org
Language                                 : English
Default                                  : No
Forced                                   : No


Text #2


ID                                       : 4
Format                                   : UTF-8
Codec ID                                 : S_TEXT/UTF8
Codec ID/Info                            : UTF-8 Plain Text
Duration                                 : 1 h 18 min
Bit rate                                 : 0 b/s
Count of elements                        : 7
Stream size                              : 466 Bytes (0%)
Title                                    : Filmmaza.org
Default                                  : Yes
Forced                                   : Yes

Related Torrents

torrent name size uploader age seed leech
1.5 GB lyrical2010 3
years
470 82
331.1 MB Crazy4TV 3
years
208 75
1 GB UTRCorp 3
years
145 14
1.1 GB PhunPsyz 3
years
134 22
3.3 GB TheVulture 3
years
113 44


Download torrent
652.8 MB
seeders:17
leechers:13
Game of Thrones S08E01 WEBRip Xvid Ac3 - 652 MB


Trackers

tracker name
udp://tracker.coppersurfer.tk:6969/announce
udp://tracker.internetwarriors.net:1337/announce
udp://tracker.opentrackr.org:1337/announce
udp://9.rarbg.to:2710/announce
udp://exodus.desync.com:6969/announce
udp://explodie.org:6969/announce
http://tracker2.itzmx.com:6961/announce
http://tracker1.itzmx.com:8080/announce
udp://ipv4.tracker.harry.lu:80/announce
udp://denis.stalker.upeer.me:6969/announce
µTorrent compatible trackers list

Download torrent
652.8 MB
seeders:17
leechers:13
Game of Thrones S08E01 WEBRip Xvid Ac3 - 652 MB


Torrent hash: 180F4E076C91E9CA85A6CFCDCB6A3197795A9B53