Gold.Rush.S11E05.Its.Alive.WEBRip.x264-CAFFEiNE

seeders: 134
leechers: 16
updated:
Added by prudence25 in TV > HD

Download Fast Safe Anonymous
movies, software, shows...
Summary:

Parker's team faces a huge engineering challenge. Meanwhile, Rick dives into a substantial operational upgrade. And two of the Beets siblings, Mike and Monica, look to open more ground as a team.

Files

Gold.Rush.S11E05.Its.Alive.WEBRip.x264-CAFFEiNE[rarbg]
  • Gold.Rush.S11E05.Its.Alive.WEBRip.x264-CAFFEiNE.mkv (543.8 MB)
  • RARBG.txt (0.0 KB)
  • RARBG_DO_NOT_MIRROR.exe (0.1 KB)
  • gold.rush.s11e05.its.alive.webrip.x264-caffeine.nfo (0.5 KB)
  • gold.rush.s11e05.its.alive.webrip.x264-caffeine_tvm.jpg (240.6 KB)

Description

Quote:

Video
ID : 1
Format : AVC
Format/Info : Advanced Video Codec
Format profile : [email protected]
Format settings : CABAC / 8 Ref Frames
Format settings, CABAC : Yes
Format settings, Reference frames : 8 frames
Codec ID : V_MPEG4/ISO/AVC
Duration : 41 min 35 s
Bit rate : 1 699 kb/s
Width : 720 pixels
Height : 404 pixels
Display aspect ratio : 16:9
Frame rate mode : Constant
Frame rate : 23.976 (24000/1001) FPS
Color space : YUV
Chroma subsampling : 4:2:0
Bit depth : 8 bits
Scan type : Progressive
Bits/(Pixel*Frame) : 0.244
Stream size : 505 MiB (93%)
Writing library : x264 core 160 r3009 4c9b076
Encoding settings : cabac=1 / ref=8 / deblock=1:-3:-3 / analyse=0x3:0x133 / me=umh / subme=9 / psy=1 / psy_rd=1.00:0.00 / mixed_ref=1 / me_range=16 / chroma_me=1 / trellis=2 / 8x8dct=1 / cqm=0 / deadzone=21,11 / fast_pskip=0 / chroma_qp_offset=-2 / threads=13 / lookahead_threads=1 / sliced_threads=0 / nr=0 / decimate=1 / interlaced=0 / bluray_compat=0 / constrained_intra=0 / bframes=3 / b_pyramid=2 / b_adapt=2 / b_bias=0 / direct=3 / weightb=1 / open_gop=0 / weightp=2 / keyint=250 / keyint_min=23 / scenecut=40 / intra_refresh=0 / rc_lookahead=60 / rc=crf / mbtree=1 / crf=19.0 / qcomp=0.60 / qpmin=0 / qpmax=69 / qpstep=4 / ip_ratio=1.40 / aq=1:0.80
Language : English
Default : Yes
Forced : No
Color range : Limited
Matrix coefficients : BT.709

Audio
ID : 2
Format : AAC LC SBR
Format/Info : Advanced Audio Codec Low Complexity with Spectral Band Replication
Commercial name : HE-AAC
Format settings : Implicit
Codec ID : A_AAC-2
Duration : 41 min 35 s
Bit rate : 127 kb/s
Channel(s) : 2 channels
Channel layout : L R
Sampling rate : 48.0 kHz
Frame rate : 23.438 FPS (2048 SPF)
Compression mode : Lossy
Stream size : 37.7 MiB (7%)
Language : English
Default : Yes
Forced : No

Text
ID : 3
Format : UTF-8
Codec ID : S_TEXT/UTF8
Codec ID/Info : UTF-8 Plain Text
Duration : 41 min 33 s
Bit rate : 103 b/s
Count of elements : 672
Stream size : 31.6 KiB (0%)
Language : English
Default : No
Forced : No

Related Torrents

torrent name size uploader age seed leech
1003.9 MB prudence25 11
days
223 20
1003.7 MB mazemaze16 14
days
218 87
543.8 MB mazemaze16 14
days
97 11
2.1 GB mazemaze16 12
days
19 6
1.1 GB mazemaze16 3
days
19 2


Download torrent
544.1 MB
seeders:134
leechers:16
Gold.Rush.S11E05.Its.Alive.WEBRip.x264-CAFFEiNE


Trackers

tracker name
http://tracker.trackerfix.com:80/announce
udp://9.rarbg.me:2790/announce
udp://9.rarbg.to:2910/announce
µTorrent compatible trackers list

Download torrent
544.1 MB
seeders:134
leechers:16
Gold.Rush.S11E05.Its.Alive.WEBRip.x264-CAFFEiNE


Torrent hash: 990F211CB78ADB11C513BC4FCCAA29A2A8FFBC72