Indiana Jones and the Last Crusade 1989 1080p BluRay DD+ 7.1 x265-edge2020

seeders: 1
leechers: 214
updated:
Added by EDGE2020 in Movies > HEVC/x265

Download Fast Safe Anonymous
movies, software, shows...
Summary:

When Dr. Henry Jones Sr. suddenly goes missing while pursuing the Holy Grail, eminent archaeologist Indiana Jones must team up with Marcus Brody, Sallah, and Elsa Schneider to follow in his father's footsteps and stop the Nazis from recovering the power of eternal life.

Files

  • Indiana.Jones.and.the.Last.Crusade.1989.1080p.BluRay.DDP.7.1.x265-EDGE2020.mkv (13.1 GB)

Description

Quote:

Source - Indiana.Jones.and.the.Last.Crusade.1989.BluRay.1080p.TrueHD.Atmos.7.1.AVC.HYBRID.REMUX-FraMeSToR





General
Unique ID : 194529846227623700397800592582191556503 (0x925915E966EC0D67037B169391EB2797)
Complete name : Indiana.Jones.and.the.Last.Crusade.1989.1080p.BluRay.DDP.7.1.x265-EDGE2020.mkv
Format : Matroska
Format version : Version 4
File size : 13.1 GiB
Duration : 2 h 6 min
Overall bit rate : 14.8 Mb/s
Encoded date : UTC 2023-11-16 13:10:15
Writing application : mkvmerge v80.0 ('Roundabout') 64-bit
Writing library : libebml v1.4.4 + libmatroska v1.7.1

Video
ID : 1
Format : HEVC
Format/Info : High Efficiency Video Coding
Format profile : Main 10@L4@Main
Codec ID : V_MPEGH/ISO/HEVC
Duration : 2 h 6 min
Bit rate : 13.7 Mb/s
Width : 1 920 pixels
Height : 816 pixels
Display aspect ratio : 2.35:1
Frame rate mode : Constant
Frame rate : 23.976 (24000/1001) FPS
Color space : YUV
Chroma subsampling : 4:2:0
Bit depth : 10 bits
Bits/(Pixel*Frame) : 0.365
Stream size : 12.2 GiB (93%)
Writing library : x265 3.5+147+17-e8947f740:[Windows][MSVC 1937][64 bit] 10bit
Encoding settings : cpuid=1111039 / frame-threads=4 / numa-pools=24 / wpp / no-pmode / no-pme / no-psnr / no-ssim / log-level=2 / input-csp=1 / input-res=1920x816 / interlace=0 / total-frames=182538 / level-idc=0 / high-tier=1 / uhd-bd=0 / ref=4 / no-allow-non-conformance / no-repeat-headers / annexb / no-aud / no-eob / no-eos / no-hrd / info / hash=0 / temporal-layers=0 / open-gop / min-keyint=23 / keyint=250 / gop-lookahead=0 / bframes=4 / b-adapt=2 / b-pyramid / bframe-bias=0 / rc-lookahead=25 / lookahead-slices=4 / scenecut=40 / no-hist-scenecut / radl=0 / no-splice / no-intra-refresh / ctu=64 / min-cu-size=8 / rect / no-amp / max-tu-size=32 / tu-inter-depth=1 / tu-intra-depth=1 / limit-tu=0 / rdoq-level=2 / dynamic-rd=0.00 / no-ssim-rd / signhide / no-tskip / nr-intra=0 / nr-inter=0 / no-constrained-intra / strong-intra-smoothing / max-merge=3 / limit-refs=3 / limit-modes / me=3 / subme=3 / merange=57 / temporal-mvp / no-frame-dup / no-hme / weightp / no-weightb / no-analyze-src-pics / deblock=0:0 / sao / no-sao-non-deblock / rd=4 / selective-sao=4 / no-early-skip / rskip / no-fast-intra / no-tskip-fast / no-cu-lossless / no-b-intra / no-splitrd-skip / rdpenalty=0 / psy-rd=2.00 / psy-rdoq=1.00 / no-rd-refine / no-lossless / cbqpoffs=0 / crqpoffs=0 / rc=crf / crf=21.0 / qcomp=0.60 / qpstep=4 / stats-write=0 / stats-read=0 / ipratio=1.40 / pbratio=1.30 / aq-mode=2 / aq-strength=1.00 / aq-bias-strength=1.00 / cutree / zone-count=0 / no-strict-cbr / qg-size=32 / no-rc-grain / qpmax=69 / qpmin=0 / no-const-vbv / sar=0 / overscan=0 / videoformat=5 / range=0 / colorprim=2 / transfer=2 / colormatrix=2 / chromaloc=0 / display-window=0 / cll=0,0 / min-luma=0 / max-luma=1023 / log2-max-poc-lsb=8 / vui-timing-info / vui-hrd-info / slices=1 / no-opt-qp-pps / no-opt-ref-list-length-pps / no-multi-pass-opt-rps / scenecut-bias=0.05 / no-opt-cu-delta-qp / no-aq-motion / no-hdr10 / no-hdr10-opt / no-dhdr10-opt / no-idr-recovery-sei / analysis-reuse-level=0 / analysis-save-reuse-level=0 / analysis-load-reuse-level=0 / scale-factor=0 / refine-intra=0 / refine-inter=0 / refine-mv=1 / refine-ctu-distortion=0 / no-limit-sao / ctu-info=0 / no-lowpass-dct / refine-analysis-type=0 / copy-pic=1 / max-ausize-factor=1.0 / no-dynamic-refine / no-single-sei / no-hevc-aq / no-svt / no-field / qp-adaptation-range=1.00 / scenecut-aware-qp=0 / conformance-window-offsets / right=0 / bottom=0 / decoder-max-rate=0 / no-vbv-live-multi-pass / no-mcstf / no-sbrc
Default : Yes
Forced : No

Audio
ID : 2
Format : E-AC-3
Format/Info : Enhanced AC-3
Commercial name : Dolby Digital Plus
Codec ID : A_EAC3
Duration : 2 h 6 min
Bit rate mode : Constant
Bit rate : 1 024 kb/s
Channel(s) : 8 channels
Channel layout : L R C LFE Ls Rs Lb Rb
Sampling rate : 48.0 kHz
Frame rate : 31.250 FPS (1536 SPF)
Compression mode : Lossy
Stream size : 929 MiB (7%)
Title : Dolby Digital Plus / 7.1 / 48 kHz / 1024 kbps
Language : English
Service kind : Complete Main
Default : Yes
Forced : No

Text
ID : 3
Format : PGS
Muxing mode : zlib
Codec ID : S_HDMV/PGS
Codec ID/Info : Picture based subtitle format used on BDs/HD-DVDs
Duration : 1 h 59 min
Bit rate : 27.1 kb/s
Count of elements : 2612
Stream size : 23.1 MiB (0%)
Title : SHD
Language : English
Default : Yes
Forced : No

Menu
00:00:00.000 : en:Utah, 1912 / the Cross of Coronado
00:04:41.906 : en:The Pursuit
00:08:11.032 : en:Belongs in a Museum
00:11:49.041 : en:Portuguese Coast, 1938
00:14:14.436 : en:Barnett College
00:17:19.413 : en:Meeting Donovan
00:22:14.583 : en:Ransacked
00:24:51.448 : en:To Venice
00:26:52.152 : en:"X" Marks the Spot
00:30:15.563 : en:Rats!
00:36:31.564 : en:Boat Chase
00:41:10.426 : en:"Ah, Venice"
00:44:41.387 : en:To Castle Brunwald
00:47:42.401 : en:Family Reunion
00:50:23.729 : en:"What Book?"
00:54:47.534 : en:Brody and Sallah
00:56:31.137 : en:Austrian & German Goodbyes
01:00:16.112 : en:"Head for the Fireplace"
01:03:08.743 : en:Motorcycle Chase
01:05:31.385 : en:Grail Obsession
01:07:47.313 : en:Into the Lion's Den
01:10:43.530 : en:The Zeppelin
01:13:36.328 : en:A Rebuke
01:16:11.358 : en:Dogfight
01:18:57.107 : en:Close Call
01:21:20.041 : en:Hatay
01:23:28.420 : en:Approaching the Canyon
01:25:16.736 : en:Ambush
01:26:58.046 : en:Belly of the Steel Beast
01:31:21.934 : en:Tank Showdown
01:36:57.061 : en:"I Thought I'd Lost You"
01:38:53.427 : en:Canyon of the Crescent Moon
01:41:32.544 : en:The Three Challenges
01:49:18.260 : en:"Choose Wisely"
01:56:05.667 : en:Crossing the Seal
02:00:05.907 : en:Sunset and End Credits

Related Torrents

torrent name size uploader age seed leech
10.2 GB xMgBx 6
months
225 116
1.8 GB YIFY 10
years
192 14
4.7 GB UserHEVC 1
month
163 73
3.3 GB UserHEVC 5
months
162 47
16.2 GB xMgBx 6
months
144 83


Download torrent
13.1 GB
seeders:1
leechers:214
Indiana Jones and the Last Crusade 1989 1080p BluRay DD+ 7.1 x265-edge2020


Trackers

tracker name
udp://tracker.opentrackr.org:1337/announce
udp://tracker.torrent.eu.org:451
udp://open.stealth.si:80/announce
udp://tracker.openbittorrent.com:6969
udp://tracker.tiny-vps.com:6969/announce
udp://open.demonii.com:1337
µTorrent compatible trackers list

Download torrent
13.1 GB
seeders:1
leechers:214
Indiana Jones and the Last Crusade 1989 1080p BluRay DD+ 7.1 x265-edge2020


Torrent hash: C94F91E722218CF805B0EFE947EB59EE77033B2C