Killing.Me.Softly.2002.1080p.BluRay.x264.LLG

seeders: 20
leechers: 15
updated:
Added by LifeLongg in Movies > HD

Download Fast Safe Anonymous
movies, software, shows...
Summary:

A woman faces deadly consequences for abandoning her loving relationship with her boyfriend to pursue exciting sexual scenarios with a mysterious celebrity mountaineer.

Files

18+.Killing.Me.Softly.2002.1080p.BluRay.x264.LLG
  • Sample.mp4 (28.5 MB)
  • 18+.Killing.Me.Softly.2002.1080p.BluRay.x264.LLG.mp4 (1.2 GB)

Description

Quote:





*************************************************************




******************************Thumbnbil:*********************




******************************Screenshots:********************

screenshot 1

screenshot 2

screenshot 3

screenshot 4

screenshot 5

screenshot 6

screenshot 7

screenshot 8

screenshot 9

screenshot 0


******************************************************

18+.Killing.Me.Softly.2002.1080p.BluRay.x264.LLG.mp4
Format : MPEG-4
Format profile : Base Media
Codec ID : isom (isom/iso2/avc1/mp41)
File size : 1.19 GiB
Duration : 1 h 40 min
Overall bit rate mode : Variable
Overall bit rate : 1 700 kb/s
Writing application : Lavf58.29.100

Video
ID : 1
Format : AVC
Format/Info : Advanced Video Codec
Format profile : [email protected]
Format settings : CABAC / 1 Ref Frames
Format settings, CABAC : Yes
Format settings, Reference frames : 1 frame
Codec ID : avc1
Codec ID/Info : Advanced Video Coding
Duration : 1 h 40 min
Bit rate mode : Variable
Bit rate : 1 534 kb/s
Maximum bit rate : 4 500 kb/s
Width : 1 904 pixels
Height : 1 024 pixels
Display aspect ratio : 1.85:1
Frame rate mode : Constant
Frame rate : 23.976 (23976/1000) FPS
Color space : YUV
Chroma subsampling : 4:2:0
Bit depth : 8 bits
Scan type : Progressive
Bits/(Pixel*Frame) : 0.033
Stream size : 1.08 GiB (90%)
Codec configuration box : avcC

Audio
ID : 2
Format : AAC LC
Codec ID : mp4a-40-2
Duration : 1 h 40 min
Bit rate mode : Constant
Bit rate : 161 kb/s
Channel(s) : 2 channels
Channel layout : L R
Sampling rate : 48.0 kHz
Frame rate : 46.875 FPS (1024 SPF)
Compression mode : Lossy
Stream size : 115 MiB (9%)
Default : Yes
Alternate group : 1



********************************************************





Related Torrents

torrent name size uploader age seed leech
891.4 MB YTSAGx 3
years
292 76
1.6 GB YTSAGx 3
years
233 73
757 MB jalim 1
year
53 24
4.3 GB QxR 1
year
33 13
1.5 GB jalim 1
year
32 6


Download torrent
1.2 GB
seeders:20
leechers:15
Killing.Me.Softly.2002.1080p.BluRay.x264.LLG


Trackers

tracker name
udp://tracker.openbittorrent.com:80/announce
udp://tracker.opentrackr.org:1337/announce
UDP://TRACKER.LEECHERS-PARADISE.ORG:6969/ANNOUNCE
µTorrent compatible trackers list

Download torrent
1.2 GB
seeders:20
leechers:15
Killing.Me.Softly.2002.1080p.BluRay.x264.LLG


Torrent hash: BEB86DF96C2D259F62F5203B0EC9A259BEBF7E58