Le.Relazioni.Pericolose.S01E05.Il.Mondo.Dovrebbe.Aver.Paura.di.Noi.1080p.WEB-DL.ITA.ENG.DDP5.1.x264-BlackBit.mkv

seeders: 7
leechers: 0
updated:
Added by eXpOrTeRICV in TV > HD

Download Fast Safe Anonymous
movies, software, shows...
  • Downloads: 17
  • Language: English

Files

  • Le.Relazioni.Pericolose.S01E05.Il.Mondo.Dovrebbe.Aver.Paura.di.Noi.1080p.WEB-DL.ITA.ENG.DDP5.1.x264-BlackBit.mkv (3.3 GB)

Description



DATI - TRAMA

Titolo originale: Dangerous Liaisons
Genere: Drammatico , Storico
Stagioni: 1
Episodi: 8
Paese: USA

Torniamo indietro nella Parigi del ‘700 per scoprire come Camille Merteuil e Pascal Valmont sono diventati i personaggi che conosciamo in questo audace preludio che oscilla tra amore e guerra. Vediamo gli anni giovanili di questi due personaggi disposti ad usare qualsiasi cosa in loro potere per farsi strada in un mondo di seduzione e inganno, e per ottenere ciò di cui hanno bisogno per sopravvivere

IMMAGINI





REPORT


General
Unique ID : 259462439913147230402362962640193116251 (0xC332A5F388244343B66BC2169D3AD85B)
Complete name : C:\Users\Administrator\Videos\Le Relazioni Pericolose S01\Ep 01\Le.Relazioni.Pericolose.S01E01.Amore.o.Guerra.1080p.WEB-DL.ITA.ENG.DDP5.1.x264-BlackBit.mkv
Format : Matroska
Format version : Version 4
File size : 3.96 GiB
Duration : 58 min 13 s
Overall bit rate : 9 734 kb/s
Encoded date : UTC 2022-11-07 10:02:57
Writing application : mkvmerge v71.1.0 ('Fortitude') 64-bit
Writing library : libebml v1.4.4 + libmatroska v1.7.1

Video
ID : 1
Format : AVC
Format/Info : Advanced Video Codec
Format profile : [email protected]
Format settings : CABAC / 4 Ref Frames
Format settings, CABAC : Yes
Format settings, Reference : 4 frames
Codec ID : V_MPEG4/ISO/AVC
Duration : 58 min 13 s
Bit rate : 8 452 kb/s
Width : 1 920 pixels
Height : 1 080 pixels
Display aspect ratio : 16:9
Frame rate mode : Constant
Frame rate : 23.976 (24000/1001) FPS
Color space : YUV
Chroma subsampling : 4:2:0
Bit depth : 8 bits
Scan type : Progressive
Bits/(Pixel*Frame) : 0.170
Stream size : 3.44 GiB (87%)
Default : Yes
Forced : Yes
Color range : Limited
Color primaries : BT.709
Transfer characteristics : BT.709
Matrix coefficients : BT.709

Audio #1
ID : 2
Format : E-AC-3
Format/Info : Enhanced AC-3
Commercial name : Dolby Digital Plus
Codec ID : A_EAC3
Duration : 58 min 13 s
Bit rate mode : Constant
Bit rate : 640 kb/s
Channel(s) : 6 channels
Channel layout : L R C LFE Ls Rs
Sampling rate : 48.0 kHz
Frame rate : 31.250 FPS (1536 SPF)
Compression mode : Lossy
Stream size : 267 MiB (7%)
Language : Italian
Service kind : Complete Main
Default : Yes
Forced : Yes

Audio #2
ID : 3
Format : E-AC-3
Format/Info : Enhanced AC-3
Commercial name : Dolby Digital Plus
Codec ID : A_EAC3
Duration : 58 min 13 s
Bit rate mode : Constant
Bit rate : 640 kb/s
Channel(s) : 6 channels
Channel layout : L R C LFE Ls Rs
Sampling rate : 48.0 kHz
Frame rate : 31.250 FPS (1536 SPF)
Compression mode : Lossy
Stream size : 267 MiB (7%)
Language : English
Service kind : Complete Main
Default : No
Forced : No

Text #1
ID : 4
Format : UTF-8
Codec ID : S_TEXT/UTF8
Codec ID/Info : UTF-8 Plain Text
Duration : 38 min 34 s
Bit rate : 0 b/s
Frame rate : 0.002 FPS
Count of elements : 4
Stream size : 102 Bytes (0%)
Language : Italian
Default : Yes
Forced : Yes

Text #2
ID : 5
Format : UTF-8
Codec ID : S_TEXT/UTF8
Codec ID/Info : UTF-8 Plain Text
Duration : 57 min 37 s
Bit rate : 42 b/s
Frame rate : 0.173 FPS
Count of elements : 597
Stream size : 17.8 KiB (0%)
Language : Italian
Default : No
Forced : No

Text #3
ID : 6
Format : UTF-8
Codec ID : S_TEXT/UTF8
Codec ID/Info : UTF-8 Plain Text
Duration : 56 min 40 s
Bit rate : 53 b/s
Frame rate : 0.253 FPS
Count of elements : 861
Stream size : 22.1 KiB (0%)
Language : English
Default : No
Forced : No

GOOD DOWNLOAD





Download torrent
3.3 GB
seeders:7
leechers:0
Le.Relazioni.Pericolose.S01E05.Il.Mondo.Dovrebbe.Aver.Paura.di.Noi.1080p.WEB-DL.ITA.ENG.DDP5.1.x264-BlackBit.mkv


Trackers

tracker name
udp://tracker.opentrackr.org:1337/announce
udp://tracker.torrent.eu.org:451/announce
udp://open.stealth.si:80/announce
http://tracker.bt4g.com:2095/announce
udp://tracker.openbittorrent.com:80/announce
udp://tracker.tiny-vps.com:6969/announce
udp://p4p.arenabg.com:1337/announce
udp://explodie.org:6969/announce
udp://exodus.desync.com:6969/announce
udp://9.rarbg.me:2720/announce
udp://9.rarbg.to:2720/announce
µTorrent compatible trackers list

Download torrent
3.3 GB
seeders:7
leechers:0
Le.Relazioni.Pericolose.S01E05.Il.Mondo.Dovrebbe.Aver.Paura.di.Noi.1080p.WEB-DL.ITA.ENG.DDP5.1.x264-BlackBit.mkv


Torrent hash: F3F9800B0AF3460E7F3A61359C4E224B6DD5DEC8