Le.Relazioni.Pericolose.S01E05.Il.Mondo.Dovrebbe.Aver.Paura.di.Noi.1080p.WEBRip.HEVC.ITA.ENG.DDP5.1.x265-BlackBit.mkv

seeders: 5
leechers: 1
updated:
Added by eXpOrTeRICV in TV > HEVC/x265

Download Fast Safe Anonymous
movies, software, shows...
  • Downloads: 18
  • Language: English

Files

  • Le.Relazioni.Pericolose.S01E05.Il.Mondo.Dovrebbe.Aver.Paura.di.Noi.1080p.WEBRip.HEVC.ITA.ENG.DDP5.1.x265-BlackBit.mkv (1.8 GB)

Description




DATI - TRAMA

Titolo originale: Dangerous Liaisons
Genere: Drammatico , Storico
Stagioni: 1
Episodi: 8
Paese: USA

Torniamo indietro nella Parigi del ‘700 per scoprire come Camille Merteuil e Pascal Valmont sono diventati i personaggi che conosciamo in questo audace preludio che oscilla tra amore e guerra. Vediamo gli anni giovanili di questi due personaggi disposti ad usare qualsiasi cosa in loro potere per farsi strada in un mondo di seduzione e inganno, e per ottenere ciò di cui hanno bisogno per sopravvivere

IMMAGINI





REPORT

General
Unique ID : 65910570952247130356285911168696464705 (0x3195EA0AA3EF92E8EAA36AF4DAC83541)
Complete name : C:\Users\Administrator\Videos\Le Relazioni Pericolose S01\Ep 01\Le.Relazioni.Pericolose.S01E01.Amore.o.Guerra.1080p.WEBRip.HEVC.ITA.ENG.DDP5.1.x265-BlackBit.mkv
Format : Matroska
Format version : Version 4
File size : 1.97 GiB
Duration : 58 min 13 s
Overall bit rate : 4 840 kb/s
Encoded date : UTC 2022-11-07 13:20:57
Writing application : mkvmerge v71.1.0 ('Fortitude') 64-bit
Writing library : libebml v1.4.4 + libmatroska v1.7.1

Video
ID : 1
Format : HEVC
Format/Info : High Efficiency Video Coding
Format profile : Main [email protected]@Main
Codec ID : V_MPEGH/ISO/HEVC
Duration : 58 min 13 s
Bit rate : 3 558 kb/s
Width : 1 920 pixels
Height : 1 080 pixels
Display aspect ratio : 16:9
Frame rate mode : Constant
Frame rate : 23.976 (24000/1001) FPS
Color space : YUV
Chroma subsampling : 4:2:0
Bit depth : 10 bits
Bits/(Pixel*Frame) : 0.072
Stream size : 1.45 GiB (74%)
Writing library : x265 3.5+8-57e817329:[Windows][GCC 10.2.0][64 bit] 10bit
Encoding settings : cpuid=1111039 / frame-threads=3 / numa-pools=8 / wpp / no-pmode / no-pme / no-psnr / no-ssim / log-level=2 / input-csp=1 / input-res=1920x1080 / interlace=0 / total-frames=83753 / level-idc=0 / high-tier=1 / uhd-bd=0 / ref=3 / no-allow-non-conformance / no-repeat-headers / annexb / no-aud / no-hrd / info / hash=0 / no-temporal-layers / open-gop / min-keyint=23 / keyint=250 / gop-lookahead=0 / bframes=4 / b-adapt=2 / b-pyramid / bframe-bias=0 / rc-lookahead=20 / lookahead-slices=6 / scenecut=40 / hist-scenecut=0 / radl=0 / no-splice / no-intra-refresh / ctu=64 / min-cu-size=8 / no-rect / no-amp / max-tu-size=32 / tu-inter-depth=1 / tu-intra-depth=1 / limit-tu=0 / rdoq-level=0 / dynamic-rd=0.00 / no-ssim-rd / signhide / no-tskip / nr-intra=0 / nr-inter=0 / no-constrained-intra / strong-intra-smoothing / max-merge=3 / limit-refs=1 / no-limit-modes / me=1 / subme=2 / merange=57 / temporal-mvp / no-frame-dup / no-hme / weightp / no-weightb / no-analyze-src-pics / deblock=0:0 / sao / no-sao-non-deblock / rd=3 / selective-sao=4 / early-skip / rskip / no-fast-intra / no-tskip-fast / no-cu-lossless / b-intra / no-splitrd-skip / rdpenalty=0 / psy-rd=2.00 / psy-rdoq=0.00 / no-rd-refine / no-lossless / cbqpoffs=0 / crqpoffs=0 / rc=crf / crf=17.5 / qcomp=0.60 / qpstep=4 / stats-write=0 / stats-read=0 / ipratio=1.40 / pbratio=1.30 / aq-mode=2 / aq-strength=1.00 / cutree / zone-count=0 / no-strict-cbr / qg-size=32 / no-rc-grain / qpmax=69 / qpmin=0 / no-const-vbv / sar=0 / overscan=0 / videoformat=5 / range=0 / colorprim=2 / transfer=2 / colormatrix=2 / chromaloc=0 / display-window=0 / cll=0,0 / min-luma=0 / max-luma=1023 / log2-max-poc-lsb=8 / vui-timing-info / vui-hrd-info / slices=1 / no-opt-qp-pps / no-opt-ref-list-length-pps / no-multi-pass-opt-rps / scenecut-bias=0.05 / hist-threshold=0.03 / no-opt-cu-delta-qp / no-aq-motion / no-hdr10 / no-hdr10-opt / no-dhdr10-opt / no-idr-recovery-sei / analysis-reuse-level=0 / analysis-save-reuse-level=0 / analysis-load-reuse-level=0 / scale-factor=0 / refine-intra=0 / refine-inter=0 / refine-mv=1 / refine-ctu-distortion=0 / no-limit-sao / ctu-info=0 / no-lowpass-dct / refine-analysis-type=0 / copy-pic=1 / max-ausize-factor=1.0 / no-dynamic-refine / no-single-sei / no-hevc-aq / no-svt / no-field / qp-adaptation-range=1.00 / scenecut-aware-qp=0conformance-window-offsets / right=0 / bottom=0 / decoder-max-rate=0 / no-vbv-live-multi-pass
Default : Yes
Forced : Yes

Audio #1
ID : 2
Format : E-AC-3
Format/Info : Enhanced AC-3
Commercial name : Dolby Digital Plus
Codec ID : A_EAC3
Duration : 58 min 13 s
Bit rate mode : Constant
Bit rate : 640 kb/s
Channel(s) : 6 channels
Channel layout : L R C LFE Ls Rs
Sampling rate : 48.0 kHz
Frame rate : 31.250 FPS (1536 SPF)
Compression mode : Lossy
Stream size : 267 MiB (13%)
Language : Italian
Service kind : Complete Main
Default : Yes
Forced : Yes

Audio #2
ID : 3
Format : E-AC-3
Format/Info : Enhanced AC-3
Commercial name : Dolby Digital Plus
Codec ID : A_EAC3
Duration : 58 min 13 s
Bit rate mode : Constant
Bit rate : 640 kb/s
Channel(s) : 6 channels
Channel layout : L R C LFE Ls Rs
Sampling rate : 48.0 kHz
Frame rate : 31.250 FPS (1536 SPF)
Compression mode : Lossy
Stream size : 267 MiB (13%)
Language : English
Service kind : Complete Main
Default : No
Forced : No

Text #1
ID : 4
Format : UTF-8
Codec ID : S_TEXT/UTF8
Codec ID/Info : UTF-8 Plain Text
Duration : 38 min 34 s
Bit rate : 0 b/s
Frame rate : 0.002 FPS
Count of elements : 4
Stream size : 102 Bytes (0%)
Language : Italian
Default : Yes
Forced : Yes

Text #2
ID : 5
Format : UTF-8
Codec ID : S_TEXT/UTF8
Codec ID/Info : UTF-8 Plain Text
Duration : 57 min 37 s
Bit rate : 42 b/s
Frame rate : 0.173 FPS
Count of elements : 597
Stream size : 17.8 KiB (0%)
Language : Italian
Default : No
Forced : No

Text #3
ID : 6
Format : UTF-8
Codec ID : S_TEXT/UTF8
Codec ID/Info : UTF-8 Plain Text
Duration : 56 min 40 s
Bit rate : 53 b/s
Frame rate : 0.253 FPS
Count of elements : 861
Stream size : 22.1 KiB (0%)
Language : English
Default : No
Forced : No

GOOD DOWNLOAD




Download torrent
1.8 GB
seeders:5
leechers:1
Le.Relazioni.Pericolose.S01E05.Il.Mondo.Dovrebbe.Aver.Paura.di.Noi.1080p.WEBRip.HEVC.ITA.ENG.DDP5.1.x265-BlackBit.mkv


Trackers

tracker name
udp://tracker.opentrackr.org:1337/announce
udp://tracker.torrent.eu.org:451/announce
udp://open.stealth.si:80/announce
http://tracker.bt4g.com:2095/announce
udp://tracker.openbittorrent.com:80/announce
udp://tracker.tiny-vps.com:6969/announce
udp://p4p.arenabg.com:1337/announce
udp://explodie.org:6969/announce
udp://exodus.desync.com:6969/announce
udp://9.rarbg.me:2720/announce
udp://9.rarbg.to:2720/announce
µTorrent compatible trackers list

Download torrent
1.8 GB
seeders:5
leechers:1
Le.Relazioni.Pericolose.S01E05.Il.Mondo.Dovrebbe.Aver.Paura.di.Noi.1080p.WEBRip.HEVC.ITA.ENG.DDP5.1.x265-BlackBit.mkv


Torrent hash: 264CBDFC62AF46605CC9098D82E89718275810FC