Lightyear.2022.1080p.WEBRip.DDP5.1.Atmos.x264-NOGRP

seeders: 3084
leechers: 476
updated:
Added by TheMorozko in Movies > HD

Download Fast Safe Anonymous
movies, software, shows...
Summary:

Legendary Space Ranger Buzz Lightyear embarks on an intergalactic adventure alongside a group of ambitious recruits and his robot companion Sox.

Files

Lightyear.2022.1080p.WEBRip.DDP5.1.Atmos.x264-NOGRP
  • Lightyear.2022.1080p.WEBRip.DDP5.1.Atmos.x264-NOGRP.mkv (7.8 GB)
  • RARBG.txt (0.0 KB)

Description

Screens... :





Infolink -> https://www.imdb.com/title/tt10298810/

Mediainfo

Quote:

Video
ID : 1
Format : AVC
Format/Info : Advanced Video Codec
Format profile : [email protected]
Format settings : CABAC / 5 Ref Frames
Format settings, CABAC : Yes
Format settings, Reference frames : 5 frames
Codec ID : V_MPEG4/ISO/AVC
Duration : 1 h 45 min
Bit rate : 9 877 kb/s
Width : 1 920 pixels
Height : 804 pixels
Display aspect ratio : 2.40:1
Frame rate mode : Constant
Frame rate : 23.976 (24000/1001) FPS
Color space : YUV
Chroma subsampling : 4:2:0
Bit depth : 8 bits
Scan type : Progressive
Bits/(Pixel*Frame) : 0.267
Stream size : 7.25 GiB (93%)
Default : Yes
Forced : No
Color range : Limited
Color primaries : BT.709
Transfer characteristics : BT.709
Matrix coefficients : BT.709

Audio
ID : 2
Format : E-AC-3 JOC
Format/Info : Enhanced AC-3 with Joint Object Coding
Commercial name : Dolby Digital Plus with Dolby Atmos
Codec ID : A_EAC3
Duration : 1 h 45 min
Bit rate mode : Constant
Bit rate : 768 kb/s
Channel(s) : 6 channels
Channel layout : L R C LFE Ls Rs
Sampling rate : 48.0 kHz
Frame rate : 31.250 FPS (1536 SPF)
Compression mode : Lossy
Stream size : 577 MiB (7%)
Language : English
Service kind : Complete Main
Default : Yes
Forced : No
Complexity index : 16
Number of dynamic objects : 15
Bed channel count : 1 channel
Bed channel configuration : LFE

Related Torrents

torrent name size uploader age seed leech
2 GB TheMorozko 4
months
2820 279
1.9 GB mazemaze16 5
months
1526 696
1.6 GB TheMorozko 4
months
1385 229
797.3 MB TGxGoodies 4
months
1110 209
2.1 GB mazemaze16 5
months
321 104


Download torrent
7.8 GB
seeders:3084
leechers:476
Lightyear.2022.1080p.WEBRip.DDP5.1.Atmos.x264-NOGRP


Trackers

tracker name
http://tracker.trackerfix.com:80/announce
udp://9.rarbg.me:2990/announce
udp://9.rarbg.to:2730/announce
udp://tracker.slowcheetah.org:14710/announce
udp://tracker.tallpenguin.org:15710/announce
µTorrent compatible trackers list

Download torrent
7.8 GB
seeders:3084
leechers:476
Lightyear.2022.1080p.WEBRip.DDP5.1.Atmos.x264-NOGRP


Torrent hash: 9354D1B6C95DA80B5BCA2FE633388124FB20ACC8