Love Again 2023 1080p WEBRip x265 Hindi DDP5.1 English DDP5.1 ESub - SP3LL

seeders: 29
leechers: 17
updated:

Download Fast Safe Anonymous
movies, software, shows...
Summary:

Mira Ray, dealing with the loss of her fiancé, sends a series of romantic texts to his old cell phone number… not realizing the number was reassigned to Rob Burns' new work phone. A journalist, Rob is captivated by the honesty in the beautifully confessional texts. When he’s assigned to write a profile of megastar Céline Dion, he enlists her help in figuring out how to meet Mira in person and win her heart.

Files

Love Again 2023 1080p WEBRip x265 Hindi DDP5.1 English DDP5.1 ESub - SP3LL
  • Love Again 2023 1080p WEBRip x265 Hindi DDP5.1 English DDP5.1 ESub - SP3LL.mkv (3.2 GB)
  • Sample.mkv (38.9 MB)

Description




Release Title
Love Again 2023 1080p WEBRip x265 Hindi DDP5.1 English DDP5.1 ESub - SP3LL



IMDB Link
https://www.imdb.com/title/tt10276482/















Quote:

General
Complete name : Love Again 2023 1080p WEBRip x265 Hindi DDP5.1 English DDP5.1 ESub - SP3LL.mkv
Format : Matroska
Format version : Version 4
File size : 3.23 GiB
Duration : 1 h 44 min
Overall bit rate : 4 428 kb/s
Movie name : Love Again 2023 1080p WEBRip x265 Hindi DDP5.1 English DDP5.1 ESub - SP3LL
Encoded date : UTC 2023-11-04 19:34:18
Writing application : mkvmerge v79.0 ('Funeral Pyres') 64-bit
Writing library : libebml v1.4.4 + libmatroska v1.7.1

Video
ID : 1
Format : HEVC
Format/Info : High Efficiency Video Coding
Format profile : Main [email protected]@High
Codec ID : V_MPEGH/ISO/HEVC
Duration : 1 h 44 min
Bit rate : 4 044 kb/s
Width : 1 920 pixels
Height : 1 032 pixels
Display aspect ratio : 1.85:1
Frame rate mode : Variable
Frame rate : 23.976 (24000/1001) FPS
Color space : YUV
Chroma subsampling : 4:2:0
Bit depth : 10 bits
Bits/(Pixel*Frame) : 0.085
Stream size : 2.95 GiB (91%)
Default : Yes
Forced : No
Color range : Limited
Color primaries : BT.709
Transfer characteristics : BT.709
Matrix coefficients : BT.709

Audio #1
ID : 2
Format : E-AC-3
Format/Info : Enhanced AC-3
Commercial name : Dolby Digital Plus
Codec ID : A_EAC3
Duration : 1 h 44 min
Bit rate mode : Constant
Bit rate : 192 kb/s
Channel(s) : 6 channels
Channel layout : L R C LFE Ls Rs
Sampling rate : 48.0 kHz
Frame rate : 31.250 FPS (1536 SPF)
Compression mode : Lossy
Stream size : 143 MiB (4%)
Language : Hindi
Service kind : Complete Main
Default : Yes
Forced : Yes

Audio #2
ID : 3
Format : E-AC-3
Format/Info : Enhanced AC-3
Commercial name : Dolby Digital Plus
Codec ID : A_EAC3
Duration : 1 h 44 min
Bit rate mode : Constant
Bit rate : 192 kb/s
Channel(s) : 6 channels
Channel layout : L R C LFE Ls Rs
Sampling rate : 48.0 kHz
Frame rate : 31.250 FPS (1536 SPF)
Compression mode : Lossy
Stream size : 143 MiB (4%)
Language : English
Service kind : Complete Main
Default : No
Forced : No

Text #1
ID : 4
Format : UTF-8
Codec ID : S_TEXT/UTF8
Codec ID/Info : UTF-8 Plain Text
Duration : 1 h 41 min
Bit rate : 67 b/s
Frame rate : 0.257 FPS
Count of elements : 1562
Stream size : 49.7 KiB (0%)
Language : English
Default : No
Forced : No

Text #2
ID : 5
Format : UTF-8
Codec ID : S_TEXT/UTF8
Codec ID/Info : UTF-8 Plain Text
Duration : 1 h 41 min
Bit rate : 73 b/s
Frame rate : 0.288 FPS
Count of elements : 1756
Stream size : 55.0 KiB (0%)
Title : SDH
Language : English
Default : No
Forced : No

Menu
00:00:00.000 : en:Chapter 01
00:06:14.000 : en:Chapter 02
00:14:31.000 : en:Chapter 03
00:20:15.000 : en:Chapter 04
00:27:13.000 : en:Chapter 05
00:32:30.000 : en:Chapter 06
00:38:07.000 : en:Chapter 07
00:46:41.000 : en:Chapter 08
00:52:40.000 : en:Chapter 09
01:01:38.000 : en:Chapter 10
01:07:04.000 : en:Chapter 11
01:13:01.000 : en:Chapter 12
01:19:09.000 : en:Chapter 13
01:26:58.000 : en:Chapter 14
01:31:56.000 : en:Chapter 15
01:37:40.000 : en:Chapter 16




Related Torrents

torrent name size uploader age seed leech
797.3 MB TGxGoodies 1
year
560 200
1.4 GB TGxGoodies 1
year
163 41
1.7 GB MrX123 11
months
126 25
2.3 GB yerisan710 1
year
99 36
5.5 GB QxR 11
months
98 43


Download torrent
3.3 GB
seeders:29
leechers:17
Love Again 2023 1080p WEBRip x265 Hindi DDP5.1 English DDP5.1 ESub - SP3LL


Trackers

tracker name
udp://exodus.desync.com:6969/announce
udp://tracker.opentrackr.org:1337/announce
https://inferno.demonoid.is/announce
udp://open.stealth.si:80/announce
udp://tracker.moeking.me:6969/announce
udp://p4p.arenabg.com:1337/announce
http://tracker.files.fm:6969/announce
http://vps02.net.orel.ru:80/announce
udp://fe.dealclub.de:6969/announce
http://tracker.bt4g.com:2095/announce
udp://tracker.openbittorrent.com:6969/announce
https://tracker.loligirl.cn:443/announce
udp://tracker.filemail.com:6969/announce
http://tracker.mywaifu.best:6969/announce
µTorrent compatible trackers list

Download torrent
3.3 GB
seeders:29
leechers:17
Love Again 2023 1080p WEBRip x265 Hindi DDP5.1 English DDP5.1 ESub - SP3LL


Torrent hash: 7AB46542B06ADDB5388216B59A184FC1E2F437AE