Minus.31.The.Nagpur.Files.2023.Hindi.720p.AMZN.WEB-DL.DD+5.1.H.265-TheBiscuitMan

seeders: 34
leechers: 1
updated:
Added by xCLuMsYx in Movies > HEVC/x265

Download Fast Safe Anonymous
movies, software, shows...
Summary:

A murder has happened at the time of COVID, and the female cop is on duty to find the murderer.

Files

  • Minus.31.The.Nagpur.Files.2023.Hindi.720p.AMZN.WEB-DL.DD+5.1.H.265-TheBiscuitMan.mkv (1.1 GB)

Description

==============================================================

==============================================================
Minus.31.The.Nagpur.Files.2023.Hindi.720p.AMZN.WEB-DL.DD+5.1.H.265-TheBiscuitMan
==============================================================
IMDB | TMDB | MOVIE TRAILER
==============================================================
Video: HEVC | 1280x640 24fps | 603 kb/s
Audio: Hindi | E-AC-3 | Enhanced AC-3 | 640 kb/s | DD+5.1 | 6 channels
Subtitle: English (SDH)
Size: 1.09 GiB | Duration: 2h 5min
==============================================================
Posted by: xCLuMsYx | Date: 14/12/2023
==============================================================



More Poster's



Code:

General
Unique ID : 181717993354735198107618867958840280466 (0x88B59CCBB964DFA54A216AB0A717C592)
Complete name : Minus.31.The.Nagpur.Files.2023.Hindi.720p.AMZN.WEB-DL.DD+5.1.H.265-TheBiscuitMan.mkv
Format : Matroska
Format version : Version 4
File size : 1.09 GiB
Duration : 2 h 5 min
Overall bit rate : 1 245 kb/s
Frame rate : 24.000 FPS
Writing application : mkvmerge v81.0 ('Milliontown') 64-bit
Writing library : libebml v1.4.4 + libmatroska v1.7.1

Video
ID : 1
Format : HEVC
Format/Info : High Efficiency Video Coding
Format profile : [email protected]@Main
Codec ID : V_MPEGH/ISO/HEVC
Duration : 2 h 5 min
Bit rate : 603 kb/s
Width : 1 280 pixels
Height : 640 pixels
Display aspect ratio : 2.000
Frame rate mode : Constant
Frame rate : 24.000 FPS
Standard : NTSC
Color space : YUV
Chroma subsampling : 4:2:0
Bit depth : 8 bits
Bits/(Pixel*Frame) : 0.031
Stream size : 542 MiB (48%)
Default : Yes
Forced : No
Color range : Limited
Color primaries : BT.709
Transfer characteristics : BT.709
Matrix coefficients : BT.709

Audio
ID : 2
Format : E-AC-3
Format/Info : Enhanced AC-3
Commercial name : Dolby Digital Plus
Codec ID : A_EAC3
Duration : 2 h 5 min
Bit rate mode : Constant
Bit rate : 640 kb/s
Channel(s) : 6 channels
Channel layout : L R C LFE Ls Rs
Sampling rate : 48.0 kHz
Frame rate : 31.250 FPS (1536 SPF)
Compression mode : Lossy
Stream size : 576 MiB (51%)
Language : Hindi
Service kind : Complete Main
Default : Yes
Forced : No

Text
ID : 3
Format : UTF-8
Codec ID : S_TEXT/UTF8
Codec ID/Info : UTF-8 Plain Text
Duration : 2 h 0 min
Bit rate : 71 b/s
Frame rate : 0.289 FPS
Count of elements : 2094
Stream size : 63.5 KiB (0%)
Title : SDH
Language : English
Default : Yes
Forced : No












Related Torrents

torrent name size uploader age seed leech
1 GB krishh1337 7
months
114 19
2.9 GB xCLuMsYx 7
months
59 16
2.1 GB mazemaze16 7
months
27 14
2.9 GB MrX123 7
months
13 3
8.3 GB xCLuMsYx 7
months
10 5


Download torrent
1.1 GB
seeders:34
leechers:1
Minus.31.The.Nagpur.Files.2023.Hindi.720p.AMZN.WEB-DL.DD+5.1.H.265-TheBiscuitMan


Trackers

tracker name
udp://tracker.opentrackr.org:1337/announce
udp://opentracker.i2p.rocks:6969/announce
https://opentracker.i2p.rocks:443/announce
udp://tracker.openbittorrent.com:6969/announce
http://tracker.openbittorrent.com:80/announce
udp://open.demonii.com:1337/announce
udp://exodus.desync.com:6969/announce
udp://open.stealth.si:80/announce
udp://tracker.torrent.eu.org:451/announce
udp://tracker.moeking.me:6969/announce
udp://tracker.bitsearch.to:1337/announce
udp://explodie.org:6969/announce
udp://tracker1.bt.moack.co.kr:80/announce
udp://tracker.tiny-vps.com:6969/announce
udp://tracker.altrosky.nl:6969/announce
udp://p4p.arenabg.com:1337/announce
udp://movies.zsw.ca:6969/announce
https://tracker.tamersunion.org:443/announce
https://tracker.moeblog.cn:443/announce
udp://tracker.theoks.net:6969/announce
http://tracker.files.fm:6969/announce
udp://fe.dealclub.de:6969/announce
http://tracker.bt4g.com:2095/announce
https://tracker.loligirl.cn:443/announce
udp://tracker.filemail.com:6969/announce
http://tracker.mywaifu.best:6969/announce
http://open.acgnxtracker.com:80/announce
µTorrent compatible trackers list

Download torrent
1.1 GB
seeders:34
leechers:1
Minus.31.The.Nagpur.Files.2023.Hindi.720p.AMZN.WEB-DL.DD+5.1.H.265-TheBiscuitMan


Torrent hash: AF6DAD240D33DD10AD086913B719B03ADCCC385E