Monster.Hunter.2020.1080p.WEBRip.DD5.1.x264-CM

seeders: 1021
leechers: 116
updated:
Added by prudence25 in Movies > HD

Download Fast Safe Anonymous
movies, software, shows...
Summary:

A portal transports Lt. Artemis and an elite unit of soldiers to a strange world where powerful monsters rule with deadly ferocity. Faced with relentless danger, the team encounters a mysterious hunter who may be their only hope to find a way home.

Files

Monster.Hunter.2020.1080p.WEBRip.DD5.1.x264-CM
  • Monster.Hunter.2020.1080p.WEBRip.DD5.1.x264-CM.mkv (4.8 GB)
  • RARBG.txt (0.0 KB)

Description

https://www.imdb.com/title/tt6475714/





Code:

Video
ID : 1
Format : AVC
Format/Info : Advanced Video Codec
Format profile : [email protected]
Format settings : CABAC / 2 Ref Frames
Format settings, CABAC : Yes
Format settings, Reference frames : 2 frames
Codec ID : V_MPEG4/ISO/AVC
Duration : 1 h 43 min
Bit rate : 6 304 kb/s
Width : 1 920 pixels
Height : 1 080 pixels
Display aspect ratio : 16:9
Frame rate mode : Constant
Frame rate : 23.976 (24000/1001) FPS
Color space : YUV
Chroma subsampling : 4:2:0
Bit depth : 8 bits
Scan type : Progressive
Bits/(Pixel*Frame) : 0.127
Stream size : 4.54 GiB (94%)
Writing library : x264 core 155 r2901 7d0ff22
Language : English
Default : Yes
Forced : No
Color range : Limited
Color primaries : BT.709
Transfer characteristics : BT.709
Matrix coefficients : BT.709

Audio
ID : 2
Format : AC-3
Format/Info : Audio Coding 3
Commercial name : Dolby Digital
Codec ID : A_AC3
Duration : 1 h 43 min
Bit rate mode : Constant
Bit rate : 384 kb/s
Channel(s) : 6 channels
Channel layout : L R C LFE Ls Rs
Sampling rate : 48.0 kHz
Frame rate : 31.250 FPS (1536 SPF)
Compression mode : Lossy
Stream size : 283 MiB (6%)
Title : DD 5.1
Language : English
Service kind : Complete Main
Default : Yes
Forced : No

Text #1
ID : 3
Format : UTF-8
Codec ID : S_TEXT/UTF8
Codec ID/Info : UTF-8 Plain Text
Duration : 19 min 24 s
Bit rate : 0 b/s
Count of elements : 4
Stream size : 112 Bytes (0%)
Title : FORCED
Language : English
Default : Yes
Forced : Yes

Text #2
ID : 4
Format : UTF-8
Codec ID : S_TEXT/UTF8
Codec ID/Info : UTF-8 Plain Text
Duration : 1 h 29 min
Bit rate : 18 b/s
Count of elements : 472
Stream size : 12.3 KiB (0%)
Language : English
Default : No
Forced : No

Text #3
ID : 5
Format : UTF-8
Codec ID : S_TEXT/UTF8
Codec ID/Info : UTF-8 Plain Text
Duration : 1 h 42 min
Bit rate : 27 b/s
Count of elements : 1006
Stream size : 20.4 KiB (0%)
Title : SDH
Language : English
Default : No
Forced : No

Related Torrents

torrent name size uploader age seed leech
6.3 GB prudence25 2
months
4098 780
2 GB prudence25 2
months
3282 685
796 MB mazemaze16 2
months
2818 1060
1.6 GB prudence25 2
months
1786 313
4.8 GB mazemaze16 2
months
1199 572


Download torrent
4.8 GB
seeders:1021
leechers:116
Monster.Hunter.2020.1080p.WEBRip.DD5.1.x264-CM


Trackers

tracker name
http://tracker.trackerfix.com:80/announce
udp://9.rarbg.me:2950/announce
udp://9.rarbg.to:2880/announce
µTorrent compatible trackers list

Download torrent
4.8 GB
seeders:1021
leechers:116
Monster.Hunter.2020.1080p.WEBRip.DD5.1.x264-CM


Torrent hash: 68C5DDACECFF0EB3628AAB82F8730C172B72E18E