Motherland.Fort.Salem.S03E09.1080p.WEB.h264-GOSSIP

seeders: 204
leechers: 39
updated:
Added by prudence25 in TV > HD

Download Fast Safe Anonymous
movies, software, shows...

Files

Motherland.Fort.Salem.S03E09.1080p.WEB.h264-GOSSIP[rarbg]
  • Motherland.Fort.Salem.S03E09.1080p.WEB.h264-GOSSIP.mkv (2.3 GB)
  • RARBG.txt (0.0 KB)
  • RARBG_DO_NOT_MIRROR.exe (0.1 KB)
  • motherland.fort.salem.s03e09.1080p.web.h264-gossip.nfo (0.9 KB)

Description



Video
ID : 1
Format : AVC
Format/Info : Advanced Video Codec
Format profile : [email protected]
Format settings : CABAC / 4 Ref Frames
Format settings, CABAC : Yes
Format settings, Reference frames : 4 frames
Codec ID : V_MPEG4/ISO/AVC
Duration : 42 min 5 s
Bit rate mode : Constant
Bit rate : 7 129 kb/s
Nominal bit rate : 10 000 kb/s
Width : 1 920 pixels
Height : 960 pixels
Display aspect ratio : 2.000
Frame rate mode : Constant
Frame rate : 23.976 (24000/1001) FPS
Color space : YUV
Chroma subsampling : 4:2:0
Bit depth : 8 bits
Scan type : Progressive
Bits/(Pixel*Frame) : 0.161
Stream size : 2.10 GiB (92%)
Language : English
Default : Yes
Forced : No
Color range : Limited
Color primaries : BT.709
Transfer characteristics : BT.709
Matrix coefficients : BT.709

Audio
ID : 2
Format : E-AC-3
Format/Info : Enhanced AC-3
Commercial name : Dolby Digital Plus
Codec ID : A_EAC3
Duration : 42 min 5 s
Bit rate mode : Constant
Bit rate : 640 kb/s
Channel(s) : 6 channels
Channel layout : L R C LFE Ls Rs
Sampling rate : 48.0 kHz
Frame rate : 31.250 FPS (1536 SPF)
Compression mode : Lossy
Stream size : 193 MiB (8%)
Language : English
Service kind : Complete Main
Default : Yes
Forced : No

Text
ID : 3
Format : UTF-8
Codec ID : S_TEXT/UTF8
Codec ID/Info : UTF-8 Plain Text
Duration : 42 min 1 s
Bit rate : 69 b/s
Count of elements : 722
Stream size : 21.4 KiB (0%)
Title : English
Language : English
Default : No
Forced : No



Download torrent
2.3 GB
seeders:204
leechers:39
Motherland.Fort.Salem.S03E09.1080p.WEB.h264-GOSSIP


Trackers

tracker name
http://tracker.trackerfix.com:80/announce
udp://9.rarbg.me:2900/announce
udp://9.rarbg.to:2740/announce
udp://tracker.fatkhoala.org:13730/announce
udp://tracker.thinelephant.org:12790/announce
µTorrent compatible trackers list

Download torrent
2.3 GB
seeders:204
leechers:39
Motherland.Fort.Salem.S03E09.1080p.WEB.h264-GOSSIP


Torrent hash: EA4EAAA731DCD7BAA49D5B5A6C7E84C5DFA2BDD1