Old.Henry.2021.1080p.WEBRip.DD5.1.x264-NOGRP

seeders: 2669
leechers: 419
updated:
Added by TheMorozko in Movies > HD

Download Fast Safe Anonymous
movies, software, shows...
Summary:

A widowed farmer and his son warily take in a mysterious, injured man with a satchel of cash. When a posse of men claiming to be the law come for the money, the farmer must decide who to trust. Defending a siege of his homestead, the farmer reveals a talent for gun-slinging that surprises everyone calling his true identity into question.

Files

Old.Henry.2021.1080p.WEBRip.DD5.1.x264-NOGRP
  • Old.Henry.2021.1080p.WEBRip.DD5.1.x264-NOGRP.mkv (4.9 GB)
  • RARBG.txt (0.0 KB)

Description

Screens... (click to enlarge):








Infolink -> https://www.imdb.com/title/tt12731980/

Mediainfo

Quote:

Video
ID : 1
Format : AVC
Format/Info : Advanced Video Codec
Format profile : [email protected]
Format settings : CABAC / 5 Ref Frames
Format settings, CABAC : Yes
Format settings, Reference frames : 5 frames
Codec ID : V_MPEG4/ISO/AVC
Duration : 1 h 38 min
Bit rate : 6 682 kb/s
Width : 1 920 pixels
Height : 720 pixels
Display aspect ratio : 2.667
Frame rate mode : Constant
Frame rate : 23.976 (24000/1001) FPS
Color space : YUV
Chroma subsampling : 4:2:0
Bit depth : 8 bits
Scan type : Progressive
Bits/(Pixel*Frame) : 0.202
Stream size : 4.60 GiB (95%)
Language : English
Default : Yes
Forced : No
Color range : Limited
Color primaries : BT.709
Transfer characteristics : BT.709
Matrix coefficients : BT.709

Audio
ID : 2
Format : AC-3
Format/Info : Audio Coding 3
Commercial name : Dolby Digital
Codec ID : A_AC3
Duration : 1 h 38 min
Bit rate mode : Constant
Bit rate : 384 kb/s
Channel(s) : 6 channels
Channel layout : L R C LFE Ls Rs
Sampling rate : 48.0 kHz
Frame rate : 31.250 FPS (1536 SPF)
Compression mode : Lossy
Stream size : 271 MiB (5%)
Title : English
Language : English
Service kind : Complete Main
Default : Yes
Forced : No

Text
ID : 3
Format : UTF-8
Codec ID : S_TEXT/UTF8
Codec ID/Info : UTF-8 Plain Text
Duration : 1 h 32 min
Bit rate : 34 b/s
Count of elements : 784
Stream size : 23.0 KiB (0%)
Language : English
Default : Yes
Forced : No

Related Torrents

torrent name size uploader age seed leech
1.9 GB TheMorozko 2
months
1719 230
1.5 GB TheMorozko 2
months
790 82
796.3 MB TGxGoodies 2
months
681 92
1.9 GB TheMorozko 1
month
143 24
1.4 GB TGxGoodies 2
months
98 15


Download torrent
4.9 GB
seeders:2669
leechers:419
Old.Henry.2021.1080p.WEBRip.DD5.1.x264-NOGRP


Trackers

tracker name
http://tracker.trackerfix.com:80/announce
udp://9.rarbg.me:2970/announce
udp://9.rarbg.to:2930/announce
udp://tracker.fatkhoala.org:13710/announce
udp://tracker.slowcheetah.org:14770/announce
µTorrent compatible trackers list

Download torrent
4.9 GB
seeders:2669
leechers:419
Old.Henry.2021.1080p.WEBRip.DD5.1.x264-NOGRP


Torrent hash: 5987B37E71CA9EDEED74AA03ABE10B85CF2988E7