Selfiee.2023.Hindi.1080p.HS.WEB-DL.DD+5.1.Atmos.H.264-NoMeRcY

seeders: 7
leechers: 9
updated:
Added by xCLuMsYx in Movies > HD

Download Fast Safe Anonymous
movies, software, shows...
Summary:

Bollywood superstar Vijay Kumar needs to obtain a new driving license, from RTO officer, Om Prakash Agarwal, a diehard fan of Vijay. But a misunderstanding leads to a war of words between the two, eventually escalating into a feud which is played out in front of the media and the entire country.

Files

  • Selfiee.2023.1080p.WEB-DL.DDP5.1.Atmos.H.264-NoMeRcY.mkv (4.0 GB)

Description



Code:

General
Unique ID                                : 20190537534852074814463336094571485858 (0xF308E5B775DD62B891DD91DBEC4DAA2)
Complete name                            : Selfiee.2023.1080p.WEB-DL.DDP5.1.Atmos.H.264-NoMeRcY.mkv
Format                                   : Matroska
Format version                           : Version 4
File size                                : 4.05 GiB
Duration                                 : 2 h 22 min
Overall bit rate                         : 4 055 kb/s
Writing application                      : mkvmerge v75.0.0 ('Goliath') 64-bit
Writing library                          : libebml v1.4.4 + libmatroska v1.7.1

Video
ID                                       : 1
Format                                   : AVC
Format/Info                              : Advanced Video Codec
Format profile                           : [email protected]
Format settings                          : CABAC / 4 Ref Frames
Format settings, CABAC                   : Yes
Format settings, Reference frames        : 4 frames
Format settings, GOP                     : M=4, N=48
Codec ID                                 : V_MPEG4/ISO/AVC
Duration                                 : 2 h 22 min
Bit rate                                 : 3 300 kb/s
Width                                    : 1 920 pixels
Height                                   : 1 080 pixels
Display aspect ratio                     : 16:9
Frame rate mode                          : Constant
Frame rate                               : 24.000 FPS
Color space                              : YUV
Chroma subsampling                       : 4:2:0
Bit depth                                : 8 bits
Scan type                                : Progressive
Bits/(Pixel*Frame)                       : 0.066
Stream size                              : 3.28 GiB (81%)
Writing library                          : x264 core 155 r2917+2 f192430
Encoding settings                        : cabac=1 / ref=4 / deblock=1:0:0 / analyse=0x3:0x113 / me=hex / subme=8 / psy=1 / psy_rd=1.00:0.00 / mixed_ref=1 / me_range=16 / chroma_me=1 / trellis=2 / 8x8dct=1 / cqm=0 / deadzone=21,11 / fast_pskip=1 / chroma_qp_offset=-2 / threads=10 / lookahead_threads=1 / sliced_threads=0 / nr=0 / decimate=1 / interlaced=0 / bluray_compat=0 / stitchable=1 / constrained_intra=0 / bframes=3 / b_pyramid=2 / b_adapt=2 / b_bias=0 / direct=3 / weightb=1 / open_gop=0 / weightp=2 / keyint=48 / keyint_min=25 / scenecut=0 / intra_refresh=0 / rc_lookahead=48 / rc=2pass / mbtree=1 / bitrate=3300 / ratetol=1.0 / qcomp=0.60 / qpmin=0 / qpmax=69 / qpstep=4 / cplxblur=20.0 / qblur=0.5 / vbv_maxrate=4950 / vbv_bufsize=6600 / nal_hrd=none / filler=0 / ip_ratio=1.40 / aq=3:1.00
Default                                  : No
Forced                                   : No
Color range                              : Limited
Color primaries                          : BT.709
Matrix coefficients                      : BT.709

Audio
ID                                       : 2
Format                                   : E-AC-3 JOC
Format/Info                              : Enhanced AC-3 with Joint Object Coding
Commercial name                          : Dolby Digital Plus with Dolby Atmos
Codec ID                                 : A_EAC3
Duration                                 : 2 h 22 min
Bit rate mode                            : Constant
Bit rate                                 : 768 kb/s
Channel(s)                               : 6 channels
Channel layout                           : L R C LFE Ls Rs
Sampling rate                            : 48.0 kHz
Frame rate                               : 31.250 FPS (1536 SPF)
Compression mode                         : Lossy
Stream size                              : 785 MiB (19%)
Language                                 : Hindi
Service kind                             : Complete Main
Default                                  : Yes
Forced                                   : No
Complexity index                         : 16
Number of dynamic objects                : 15
Bed channel count                        : 1 channel
Bed channel configuration                : LFE

Text #1
ID                                       : 3
Format                                   : UTF-8
Codec ID                                 : S_TEXT/UTF8
Codec ID/Info                            : UTF-8 Plain Text
Duration                                 : 2 h 19 min
Bit rate                                 : 56 b/s
Frame rate                               : 0.203 FPS
Count of elements                        : 1700
Stream size                              : 57.6 KiB (0%)
Language                                 : English
Default                                  : No
Forced                                   : No

Text #2
ID                                       : 4
Format                                   : UTF-8
Codec ID                                 : S_TEXT/UTF8
Codec ID/Info                            : UTF-8 Plain Text
Duration                                 : 2 h 19 min
Bit rate                                 : 56 b/s
Frame rate                               : 0.204 FPS
Count of elements                        : 1711
Stream size                              : 58.1 KiB (0%)
Title                                    : SDH
Language                                 : English
Default                                  : No
Forced                                   : No

ReportBy                                 : MediaInfoLib - v22.09
CreatedOn                                : UTC 2023-05-28 06:26:49








Related Torrents

torrent name size uploader age seed leech
1 GB krishh1337 10
months
335 97
2.2 GB mazemaze16 12
months
149 70
2.6 GB mazemaze16 10
months
100 43
1.5 GB iMMoRTaL69 10
months
92 49
2.7 GB iMMoRTaL69 10
months
91 29


Download torrent
4 GB
seeders:7
leechers:9
Selfiee.2023.Hindi.1080p.HS.WEB-DL.DD+5.1.Atmos.H.264-NoMeRcY


Trackers

tracker name
udp://tracker.opentrackr.org:1337/announce
udp://opentracker.i2p.rocks:6969/announce
https://opentracker.i2p.rocks:443/announce
udp://tracker.openbittorrent.com:6969/announce
http://tracker.openbittorrent.com:80/announce
udp://9.rarbg.com:2810/announce
udp://open.demonii.com:1337/announce
udp://exodus.desync.com:6969/announce
udp://open.stealth.si:80/announce
udp://tracker.torrent.eu.org:451/announce
udp://tracker.moeking.me:6969/announce
udp://tracker.bitsearch.to:1337/announce
udp://explodie.org:6969/announce
udp://tracker1.bt.moack.co.kr:80/announce
udp://tracker.tiny-vps.com:6969/announce
udp://tracker.altrosky.nl:6969/announce
udp://p4p.arenabg.com:1337/announce
udp://movies.zsw.ca:6969/announce
https://tracker.tamersunion.org:443/announce
https://tracker.moeblog.cn:443/announce
µTorrent compatible trackers list

Download torrent
4 GB
seeders:7
leechers:9
Selfiee.2023.Hindi.1080p.HS.WEB-DL.DD+5.1.Atmos.H.264-NoMeRcY


Torrent hash: 0389FAC8396B75FDDC466F6BE8E5021839014569