Step.Up.S03E08.Una.nuova.direzione.1080p.WEB-DL.ITA.ENG.DDP5.1.H.264-BlackBit.mkv

seeders: 3
leechers: 0
updated:
Added by eXpOrTeRICV in TV > HD

Download Fast Safe Anonymous
movies, software, shows...
  • Downloads: 1
  • Language: English

Files

  • Step.Up.S03E08.Una.nuova.direzione.1080p.WEB-DL.ITA.ENG.DDP5.1.H.264-BlackBit.mkv (3.9 GB)

Description




DATI - TRAMA

Genere: Drammatico, Musicale
Stagioni: 3
Stato: In corso
Prima messa in onda originale: 30 Gennaio 2018
Paese: USA

La serie è incentrata su Sage Odom, leggendario fondatore della famosa High Water Performing Art School di Atlanta. Collette è la regina della scuola e partner di Sage Odom nel ballo, negli affari e in amore. La donna ha costruito e seguito da zero la visionaria accademia di Sage, raggiungendo la vetta con grinta e intraprendenza, guadagnandosi un nuovo ruolo: quello di manager di Sage Odom e del suo tour. Il tutto nascondendo un oscuro segreto. Ma quando questo segreto inizia ad avere ripercussioni su Sage, sulla High Water e sul tour, Collette comincia a considerare l'opportunità di abbandonare il ruolo della donna che sta dietro a un uomo, per diventare una donna potente, col suo uomo alle spalle.


IMMAGINI





REPORT


General
Unique ID : 149574385872481797845879229553030441709 (0x7086FA96FEF26C1E7FFC129C5E9BAAED)
Complete name : C:\Users\Administrator\Videos\Step Up S03\Ep 01-04 1080p\Step.Up.S03E01.Kryptonite.1080p.WEB-DL.ITA.ENG.DDP5.1.H.264-BlackBit.mkv
Format : Matroska
Format version : Version 4
File size : 4.81 GiB
Duration : 55 min 52 s
Overall bit rate : 12.3 Mb/s
Encoded date : UTC 2022-11-10 14:02:50
Writing application : mkvmerge v71.1.0 ('Fortitude') 64-bit
Writing library : libebml v1.4.4 + libmatroska v1.7.1

Video
ID : 1
Format : AVC
Format/Info : Advanced Video Codec
Format profile : [email protected]
Format settings : CABAC / 4 Ref Frames
Format settings, CABAC : Yes
Format settings, Reference : 4 frames
Codec ID : V_MPEG4/ISO/AVC
Duration : 55 min 52 s
Bit rate : 11.0 Mb/s
Width : 1 920 pixels
Height : 1 080 pixels
Display aspect ratio : 16:9
Frame rate mode : Constant
Frame rate : 23.976 (24000/1001) FPS
Color space : YUV
Chroma subsampling : 4:2:0
Bit depth : 8 bits
Scan type : Progressive
Bits/(Pixel*Frame) : 0.222
Stream size : 4.31 GiB (90%)
Default : Yes
Forced : Yes
Color range : Limited
Color primaries : BT.709
Transfer characteristics : BT.709
Matrix coefficients : BT.709

Audio #1
ID : 2
Format : E-AC-3
Format/Info : Enhanced AC-3
Commercial name : Dolby Digital Plus
Codec ID : A_EAC3
Duration : 55 min 52 s
Bit rate mode : Constant
Bit rate : 640 kb/s
Channel(s) : 6 channels
Channel layout : L R C LFE Ls Rs
Sampling rate : 48.0 kHz
Frame rate : 31.250 FPS (1536 SPF)
Compression mode : Lossy
Stream size : 256 MiB (5%)
Language : Italian
Service kind : Complete Main
Default : Yes
Forced : Yes

Audio #2
ID : 3
Format : E-AC-3
Format/Info : Enhanced AC-3
Commercial name : Dolby Digital Plus
Codec ID : A_EAC3
Duration : 55 min 52 s
Bit rate mode : Constant
Bit rate : 640 kb/s
Channel(s) : 6 channels
Channel layout : L R C LFE Ls Rs
Sampling rate : 48.0 kHz
Frame rate : 31.250 FPS (1536 SPF)
Compression mode : Lossy
Stream size : 256 MiB (5%)
Language : English
Service kind : Complete Main
Default : No
Forced : No

Text #1
ID : 4
Format : UTF-8
Codec ID : S_TEXT/UTF8
Codec ID/Info : UTF-8 Plain Text
Duration : 54 min 7 s
Bit rate : 6 b/s
Frame rate : 0.021 FPS
Count of elements : 69
Stream size : 2.55 KiB (0%)
Language : Italian
Default : Yes
Forced : Yes

Text #2
ID : 5
Format : UTF-8
Codec ID : S_TEXT/UTF8
Codec ID/Info : UTF-8 Plain Text
Duration : 55 min 25 s
Bit rate : 72 b/s
Frame rate : 0.263 FPS
Count of elements : 873
Stream size : 29.5 KiB (0%)
Language : Italian
Default : No
Forced : No

Text #3
ID : 6
Format : UTF-8
Codec ID : S_TEXT/UTF8
Codec ID/Info : UTF-8 Plain Text
Duration : 54 min 26 s
Bit rate : 110 b/s
Frame rate : 0.390 FPS
Count of elements : 1274
Stream size : 44.1 KiB (0%)
Language : English
Default : No
Forced : No

GOOD DOWNLOAD






Download torrent
3.9 GB
seeders:3
leechers:0
Step.Up.S03E08.Una.nuova.direzione.1080p.WEB-DL.ITA.ENG.DDP5.1.H.264-BlackBit.mkv


Trackers

tracker name
udp://tracker.opentrackr.org:1337/announce
udp://tracker.torrent.eu.org:451/announce
udp://open.stealth.si:80/announce
http://tracker.bt4g.com:2095/announce
udp://tracker.openbittorrent.com:80/announce
udp://tracker.tiny-vps.com:6969/announce
udp://p4p.arenabg.com:1337/announce
udp://explodie.org:6969/announce
udp://exodus.desync.com:6969/announce
udp://9.rarbg.me:2720/announce
udp://9.rarbg.to:2720/announce
µTorrent compatible trackers list

Download torrent
3.9 GB
seeders:3
leechers:0
Step.Up.S03E08.Una.nuova.direzione.1080p.WEB-DL.ITA.ENG.DDP5.1.H.264-BlackBit.mkv


Torrent hash: 9F34FEA862875B9FDCA707EEAA637A57EB15A391