Sympathy For The Devil 2023 1080p WEBRip x265 Hindi DDP2.0 English DDP5.1 ESub - SP3LL

seeders: 57
leechers: 21
updated:

Download Fast Safe Anonymous
movies, software, shows...
Summary:

After being forced to drive a mysterious passenger at gunpoint, a man finds himself in a high-stakes game of cat and mouse where it becomes clear that not everything is as it seems.

Files

Sympathy For The Devil 2023 1080p WEBRip x265 Hindi DDP2.0 English DDP5.1 ESub - SP3LL
  • Sympathy For The Devil 2023 1080p WEBRip x265 Hindi DDP2.0 English DDP5.1 ESub - SP3LL.mkv (2.7 GB)
  • Sample.mkv (31.4 MB)

Description




Release Title
Sympathy For The Devil 2023 1080p WEBRip x265 Hindi DDP2.0 English DDP5.1 ESub - SP3LL



IMDB Link
https://www.imdb.com/title/tt21991654/

















Quote:

General
Complete name : Sympathy For The Devil 2023 1080p WEBRip x265 Hindi DDP2.0 English DDP5.1 ESub - SP3LL.mkv
Format : Matroska
Format version : Version 4
File size : 2.68 GiB
Duration : 1 h 30 min
Overall bit rate : 4 254 kb/s
Movie name : Sympathy For The Devil 2023 1080p WEBRip x265 Hindi DDP2.0 English DDP5.1 ESub - SP3LL
Encoded date : UTC 2023-11-12 20:50:09
Writing application : mkvmerge v79.0 ('Funeral Pyres') 64-bit
Writing library : libebml v1.4.4 + libmatroska v1.7.1

Video
ID : 1
Format : HEVC
Format/Info : High Efficiency Video Coding
Format profile : Main [email protected]@High
Codec ID : V_MPEGH/ISO/HEVC
Duration : 1 h 30 min
Bit rate : 3 931 kb/s
Width : 1 920 pixels
Height : 816 pixels
Display aspect ratio : 2.35:1
Frame rate mode : Variable
Frame rate : 23.976 (24000/1001) FPS
Color space : YUV
Chroma subsampling : 4:2:0
Bit depth : 10 bits
Bits/(Pixel*Frame) : 0.105
Stream size : 2.48 GiB (92%)
Default : Yes
Forced : No
Color range : Limited
Color primaries : BT.709
Transfer characteristics : BT.709
Matrix coefficients : BT.709

Audio #1
ID : 2
Format : E-AC-3
Format/Info : Enhanced AC-3
Commercial name : Dolby Digital Plus
Codec ID : A_EAC3
Duration : 1 h 30 min
Bit rate mode : Constant
Bit rate : 128 kb/s
Channel(s) : 2 channels
Channel layout : L R
Sampling rate : 44.1 kHz
Frame rate : 28.711 FPS (1536 SPF)
Compression mode : Lossy
Delay relative to video : 2 s 550 ms
Stream size : 82.6 MiB (3%)
Language : Hindi
Service kind : Complete Main
Default : Yes
Forced : No

Audio #2
ID : 3
Format : E-AC-3
Format/Info : Enhanced AC-3
Commercial name : Dolby Digital Plus
Codec ID : A_EAC3
Duration : 1 h 30 min
Bit rate mode : Constant
Bit rate : 192 kb/s
Channel(s) : 6 channels
Channel layout : L R C LFE Ls Rs
Sampling rate : 48.0 kHz
Frame rate : 31.250 FPS (1536 SPF)
Compression mode : Lossy
Stream size : 124 MiB (5%)
Language : English
Service kind : Complete Main
Default : No
Forced : No

Text
ID : 4
Format : UTF-8
Codec ID : S_TEXT/UTF8
Codec ID/Info : UTF-8 Plain Text
Duration : 1 h 29 min
Bit rate : 54 b/s
Frame rate : 0.268 FPS
Count of elements : 1446
Stream size : 36.0 KiB (0%)
Language : English
Default : No
Forced : No




Related Torrents

torrent name size uploader age seed leech
1.4 GB TGxGoodies 10
months
2475 452
796.6 MB TGxGoodies 10
months
1248 269
4.6 GB TGxGoodies 10
months
673 351
4.4 GB QxR 8
months
278 96
1.2 GB TGxGoodies 7
months
144 51


Download torrent
2.7 GB
seeders:57
leechers:21
Sympathy For The Devil 2023 1080p WEBRip x265 Hindi DDP2.0 English DDP5.1 ESub - SP3LL


Trackers

tracker name
udp://exodus.desync.com:6969/announce
udp://tracker.opentrackr.org:1337/announce
https://inferno.demonoid.is/announce
udp://open.stealth.si:80/announce
udp://tracker.moeking.me:6969/announce
udp://p4p.arenabg.com:1337/announce
http://tracker.files.fm:6969/announce
http://vps02.net.orel.ru:80/announce
udp://fe.dealclub.de:6969/announce
http://tracker.bt4g.com:2095/announce
udp://tracker.openbittorrent.com:6969/announce
https://tracker.loligirl.cn:443/announce
udp://tracker.filemail.com:6969/announce
http://tracker.mywaifu.best:6969/announce
µTorrent compatible trackers list

Download torrent
2.7 GB
seeders:57
leechers:21
Sympathy For The Devil 2023 1080p WEBRip x265 Hindi DDP2.0 English DDP5.1 ESub - SP3LL


Torrent hash: AD802CCD2740308C88D9E58B3A6F1E2DC9CBF765