Tales.of.the.Walking.Dead.S01E02.1080p.WEB.H264-GLHF

seeders: 290
leechers: 34
updated:
Added by prudence25 in TV > HD

Download Fast Safe Anonymous
movies, software, shows...

Files

Tales.of.the.Walking.Dead.S01E02.1080p.WEB.H264-GLHF[rarbg]
  • RARBG.txt (0.0 KB)
  • RARBG_DO_NOT_MIRROR.exe (0.1 KB)
  • tales.of.the.walking.dead.s01e02.1080p.web.h264-glhf.mkv (3.9 GB)
  • tales.of.the.walking.dead.s01e02.1080p.web.h264-glhf.nfo (0.4 KB)

Description



Video
ID : 1
Format : AVC
Format/Info : Advanced Video Codec
Format profile : [email protected]
Format settings : CABAC / 4 Ref Frames
Format settings, CABAC : Yes
Format settings, Reference frames : 4 frames
Codec ID : V_MPEG4/ISO/AVC
Duration : 46 min 55 s
Bit rate : 10.9 Mb/s
Width : 1 920 pixels
Height : 1 080 pixels
Display aspect ratio : 16:9
Frame rate mode : Constant
Frame rate : 24.000 FPS
Color space : YUV
Chroma subsampling : 4:2:0
Bit depth : 8 bits
Scan type : Progressive
Bits/(Pixel*Frame) : 0.220
Stream size : 3.59 GiB (93%)
Default : Yes
Forced : No
Color range : Limited
Color primaries : BT.709
Transfer characteristics : BT.709
Matrix coefficients : BT.709

Audio
ID : 2
Format : E-AC-3
Format/Info : Enhanced AC-3
Commercial name : Dolby Digital Plus
Codec ID : A_EAC3
Duration : 46 min 55 s
Bit rate mode : Constant
Bit rate : 640 kb/s
Channel(s) : 6 channels
Channel layout : L R C LFE Ls Rs
Sampling rate : 48.0 kHz
Frame rate : 31.250 FPS (1536 SPF)
Compression mode : Lossy
Stream size : 215 MiB (5%)
Language : English
Service kind : Complete Main
Default : Yes
Forced : No

Text
ID : 3
Format : UTF-8
Codec ID : S_TEXT/UTF8
Codec ID/Info : UTF-8 Plain Text
Title : English [SDH]
Language : English
Default : No
Forced : No



Download torrent
3.9 GB
seeders:290
leechers:34
Tales.of.the.Walking.Dead.S01E02.1080p.WEB.H264-GLHF


Trackers

tracker name
http://tracker.trackerfix.com:80/announce
udp://9.rarbg.me:2950/announce
udp://9.rarbg.to:2850/announce
udp://tracker.thinelephant.org:12740/announce
udp://tracker.slowcheetah.org:14750/announce
µTorrent compatible trackers list

Download torrent
3.9 GB
seeders:290
leechers:34
Tales.of.the.Walking.Dead.S01E02.1080p.WEB.H264-GLHF


Torrent hash: 83149E4B3FC9E89B0986783CC977166B736CE0B5