The.Crazies.2010.TS.READNFO.XViD IMAGiNE

seeders: 0
leechers: 0
updated:
Added by bitbyte in Movies > Divx/Xvid

Download Fast Safe Anonymous
movies, software, shows...
Summary:

Imagine living in a small town where everything is safe and happy…until suddenly it isn’t. Imagine your friends and neighbors going quickly and horrifically insane. In a terrifying tale of the “American Dream” gone horribly wrong, four friends find themselves trapped in their hometown in The Crazies, a reinvention of the George Romero classic.

Files

  • The Crazies TS READNFO XViD - IMAGiNE.avi (1.4 GB)
  • Torrent downloaded from Bit Byte.nfo (0.0 KB)

Description



Ripper ...........: IMAGiNE
IMDB Rating.......: 7.4/10
Release Date......: 06/03/10
Theatre Date......: 26/02/10
Runtime...........: 1h 33mn
Language..........: ENGLISH
IMDb URL..........: http://www.imdb.com/title/tt0455407/

Video Codec.......: XVID
Audio Codec.......: MP3
Audio Bitrate.....: 128kbps
Subtitles.........: NIL
Resolution........: 720 x 288


DETAILS:

Video
ID : 0
Format : MPEG-4 Visual
Format profile : Advanced [email protected]
Format settings, BVOP : Yes
Format settings, QPel : No
Format settings, GMC : No warppoints
Format settings, Matrix : Default (MPEG)
Codec ID : DX50
Codec ID/Hint : DivX 5
Duration : 1h 33mn
Bit rate : 1 970 Kbps
Width : 720 pixels
Height : 288 pixels
Display aspect ratio : 2.500
Frame rate : 23.976 fps
Resolution : 24 bits
Colorimetry : 4:2:0
Scan type : Progressive
Bits/(Pixel*Frame) : 0.396
Stream size : 1.28 GiB (93%)
Writing library : XviD 1.2.1 (UTC 2008-12-04)

Audio
ID : 1
Format : MPEG Audio
Format version : Version 1
Format profile : Layer 3
Codec ID : 55
Codec ID/Hint : MP3
Duration : 1h 33mn
Bit rate mode : Constant
Bit rate : 128 Kbps
Channel(s) : 2 channels
Sampling rate : 44.1 KHz
Resolution : 16 bits
Stream size : 85.4 MiB (6%)
Alignment : Aligned on interleaves
Interleave, duration : 42 ms (1.00 video frame)

Screenshots:





Please seed when done...

Join up at http://www.bit-byte.org for more torrents...

Related Torrents

torrent name size uploader age seed leech
448.9 MB RocketYaar 7
years
53 4
2.8 GB Hon3yHD 1
year
7 3
1.9 GB vicerock 6
years
3 2
12.2 GB bobnjeff 6
years
2 0
901.6 MB MkvCage 3
years
2 0


Download torrent
1.4 GB
seeders:0
leechers:0
The.Crazies.2010.TS.READNFO.XViD IMAGiNE


Trackers

tracker name
http://announce.bit-byte.org/announce.php
udp://tracker.1337x.org:80/announce
µTorrent compatible trackers list

Download torrent
1.4 GB
seeders:0
leechers:0
The.Crazies.2010.TS.READNFO.XViD IMAGiNE


Torrent hash: D5D9670519254CFBBFF8AB85A5C93336D1083C15