The Fall Guy 2024 1080p AMZN WEB-DL DDP5 1 Atmos H 264-FLUX

seeders: 1119
leechers: 777
updated:

Download Fast Safe Anonymous
movies, software, shows...
Summary:

Fresh off an almost career-ending accident, stuntman Colt Seavers has to track down a missing movie star, solve a conspiracy and try to win back the love of his life while still doing his day job.

Files

The Fall Guy 2024 1080p AMZN WEB-DL DDP5 1 Atmos H 264-FLUX
  • The Fall Guy 2024 1080p AMZN WEB-DL DDP5 1 Atmos H 264-FLUX.jpg (405.4 KB)
  • The Fall Guy 2024 1080p AMZN WEB-DL DDP5 1 Atmos H 264-FLUX.mkv (8.4 GB)
  • The Fall Guy 2024 1080p AMZN WEB-DL DDP5 1 Atmos H 264-FLUX.mkv.nfo (6.5 KB)

Description



The Fall Guy 2024 1080p AMZN WEB-DL DDP5 1 Atmos H 264-FLUX






Format : Matroska
Format version : Version 4
File size : 8.40 GiB
Duration : 2 h 7 min
Overall bit rate : 9 465 kb/s
Frame rate : 23.976 FPS
Writing application : mkvmerge v79.0 ('Funeral Pyres') 64-bit
Writing library : libebml v1.4.4 + libmatroska v1.7.1

Video
ID : 1
Format : AVC
Format/Info : Advanced Video Codec
Format profile : High@L4
Format settings : CABAC / 4 Ref Frames
Format settings, CABAC : Yes
Format settings, Reference frames : 4 frames
Codec ID : V_MPEG4/ISO/AVC
Duration : 2 h 7 min
Bit rate mode : Constant
Bit rate : 8 508 kb/s
Nominal bit rate : 10 000 kb/s
Width : 1 920 pixels
Height : 800 pixels
Display aspect ratio : 2.40:1
Frame rate mode : Constant
Frame rate : 23.976 (24000/1001) FPS
Color space : YUV
Chroma subsampling : 4:2:0
Bit depth : 8 bits
Scan type : Progressive
Bits/(Pixel*Frame) : 0.231
Stream size : 7.55 GiB (90%)
Language : English (US)
Default : Yes
Forced : No
Color range : Limited
Color primaries : BT.709
Transfer characteristics : BT.709
Matrix coefficients : BT.709

Audio
ID : 2
Format : E-AC-3 JOC
Format/Info : Enhanced AC-3 with Joint Object Coding
Commercial name : Dolby Digital Plus with Dolby Atmos
Codec ID : A_EAC3
Duration : 2 h 7 min
Bit rate mode : Constant
Bit rate : 768 kb/s
Channel(s) : 6 channels
Channel layout : L R C LFE Ls Rs
Sampling rate : 48.0 kHz
Frame rate : 31.250 FPS (1536 SPF)
Compression mode : Lossy
Delay relative to video : 13 ms
Stream size : 698 MiB (8%)
Language : English (US)
Service kind : Complete Main
Default : Yes
Forced : No
Complexity index : 16
Number of dynamic objects : 15
Bed channel count : 1 channel
Bed channel configuration : LFE

Text #1
ID : 3
Format : UTF-8
Codec ID : S_TEXT/UTF8
Codec ID/Info : UTF-8 Plain Text
Language : English (US)
Default : No
Forced : No

Screens:



Related Torrents

torrent name size uploader age seed leech
1.4 GB TGxGoodies 1
month
2684 1765
797.7 MB TGxGoodies 1
month
2220 1208
2.2 GB mazemaze16 1
month
1306 612
11.1 GB Dr4go2 18
hours
754 63
7.9 GB mazemaze16 1
month
601 217


Download torrent
8.4 GB
seeders:1119
leechers:777
The Fall Guy 2024 1080p AMZN WEB-DL DDP5 1 Atmos H 264-FLUX


Trackers

tracker name
udp://tracker.opentrackr.org:1337/announce
udp://exodus.desync.com:6969/announce
udp://9.rarbg.me:2970/announce
udp://tracker.opentrackr.org:1337/announce
udp://tracker.tiny-vps.com:6969/announce
udp://tracker.internetwarriors.net:1337/announce
udp://opentor.org:2710/announce
udp://tracker.torrent.eu.org:451/announce
udp://explodie.org:6969/announce
udp://tracker.moeking.me:6969/announce
udp://tracker.cyberia.is:6969/announce
udp://9.rarbg.me:2980/announce
udp://9.rarbg.to:2940/announce
udp://tracker.uw0.xyz:6969/announce
udp://tracker.openbittorrent.com:1337/announce
µTorrent compatible trackers list

Download torrent
8.4 GB
seeders:1119
leechers:777
The Fall Guy 2024 1080p AMZN WEB-DL DDP5 1 Atmos H 264-FLUX


Torrent hash: CD8B2105BF66835EF242F3F5D3E3C2B870B9FF09