The Fourth Kind[2009]DVDRip-TheZanny

seeders: 0
leechers: 0
updated:
Added by thezanny in Movies > Divx/Xvid

Download Fast Safe Anonymous
movies, software, shows...
Summary:

A thriller involving an ongoing unsolved mystery in Alaska, where one town has seen an extraordinary number of unexplained disappearances during the past 40 years and there are accusations of a federal cover up.

Files

  • The Fourth Kind[2009]DVDRip-TheZanny.avi (700.4 MB)
  • Screens.jpg (358.6 KB)
  • Movie Poster.jpg (50.3 KB)
  • Media Info.txt (2.2 KB)

Description

General
Complete name : The Fourth Kind[2009]DVDRip-TheZanny
Format : AVI
Format/Info : Audio Video Interleave
File size : 700 MiB
Duration : 1h 37mn
Overall bit rate : 1 005 Kbps
Writing library : VirtualDub build 32706/release


Video
ID : 0
Format : MPEG-4 Visual
Format profile : Advanced [email protected]
Format settings, BVOP : Yes
Format settings, QPel : No
Format settings, GMC : No warppoints
Format settings, Matrix : Default (H.263)
Muxing mode : Packed bitstream
Codec ID : XVID
Codec ID/Hint : XviD
Duration : 1h 37mn
Bit rate : 879 Kbps
Width : 672 pixels
Height : 288 pixels
Display aspect ratio : 2.35:1
Frame rate : 23.976 fps
Resolution : 8 bits
Colorimetry : 4:2:0
Scan type : Progressive
Bits/(Pixel*Frame) : 0.189
Stream size : 612 MiB (87%)
Writing library : XviD 1.3.0.dev55

Audio
ID : 1
Format : MPEG Audio
Format version : Version 1
Format profile : Layer 3
Mode : Joint stereo
Format_Settings_ModeExtension : MS Stereo
Codec ID : 55
Codec ID/Hint : MP3
Duration : 1h 37mn
Bit rate mode : Variable
Bit rate : 112 Kbps
Channel(s) : 2 channels
Sampling rate : 44.1 KHz
Stream size : 79.4 MiB (11%)
Alignment : Aligned on interleaves
Interleave, duration : 26 ms (0.63 video frame)
Interleave, preload duration : 516 ms
Writing library : LAME3.98.2

Screens:-

http://www.ziddu.com/download/8784812/Screens.jpg.html

Related Torrents

torrent name size uploader age seed leech
753.5 MB YIFY 6
years
43 7
2.4 GB 1046 4
years
23 0
2 GB CCaveman 3
years
18 5
4.9 GB luminal 2
years
5 1
700 MB FXG 9
years
2 0


Download torrent
700.8 MB
seeders:0
leechers:0
The Fourth Kind[2009]DVDRip-TheZanny



Download torrent
700.8 MB
seeders:0
leechers:0
The Fourth Kind[2009]DVDRip-TheZanny


Torrent hash: 5413AD498ADF63682641E125009FF4D4BBA2A160