The.Kingdom.2007.iTA.ENG.AC3.SUB.iTA.ENG.BluRay.1080p.x264.jeddak-MIRCrew

seeders: 41
leechers: 10
updated:
Added by jeddak in Movies > HD

Download Fast Safe Anonymous
movies, software, shows...
Summary:

A team of U.S. government agents is sent to investigate the bombing of an American facility in the Middle East.

Files

  • The.Kingdom.2007.iTA.ENG.AC3.SUB.iTA.ENG.BluRay.1080p.x264.jeddak-MIRCrew.mkv (2.6 GB)

Description






The Kingdom


Titolo originale: The Kingdom
Genere: Azione, Drammatico, Thriller
Anno: 2007
Regia: Peter Berg
Attori: Jamie Foxx, Jennifer Garner, Jason Bateman, Chris Cooper, Andrew Astor, Minka Kelly, Amy Hunter, Ali Suliman, Tj Burnett, Hope Fogle, Ashraf Barhoum, Raad Rawi, Hrach Titizian, Trevor St. John, Brooke Langton, Tom Bresnahan, Kelly AuCoin, Brian Mulligan, Brody M. Tardy
Paese: USA
Durata: 110 min
Distribuzione: Universal Pictures
Sceneggiatura: Matthew Michael Carnahan
Fotografia: Mauro Fiore
Montaggio: Kevin Stitt, Colby Parker Jr.
Musiche: Danny Elfman
Produzione: Universal Pictures, Forward Pass, Film 44, Relativity Media, Stuber/Parent


Ronald Fleury, agente speciale dell'FBI, viene mandato in missione speciale in Medio Oriente. Insieme ad una squadra composta dall'elite dell'agenzia investigativa, deve recarsi per una settimana a Riyadh, infiltrarsi tra le fila della Jihad e catturare uno dei capi del terrorismo islamico. Tuttavia, la squadra si trova impreparata ad affrontare le reali condizioni sociali e politiche cui deve far fronte ma, con l'aiuto di un capitano della polizia saudita, Fleury e i suoi cercheranno di salvare se stessi e la tranquillità internazionale in una disperata lotta contro il tempo.




















FONTE VIDEO: BluRay
FONTE AUDIO iTA: BluRay
FONTE AUDIO ENG: BluRay

General
Unique ID : 245321119171828135796449864611812231221 (0xB88F21023C4B1941BDA26A7175664835)
Complete name : The.Kingdom.2007.iTA.ENG.AC3.SUB.iTA.ENG.BluRay.1080p.x264.jeddak-MIRCrew.mkv
Format : Matroska
Format version : Version 2
File size : 2.62 GiB
Duration : 1 h 49 min
Overall bit rate : 3 423 kb/s
Movie name : The.Kingdom.2007.iTA.ENG.AC3.SUB.iTA.ENG.BluRay.1080p.x264.jeddak-MIRCrew
Encoded date : UTC 2023-06-04 08:18:26
Writing application : mkvmerge v5.6.0 ('Kenya Kane') built on May 27 2012 16:44:04
Writing library : libebml v1.2.3 + libmatroska v1.3.0 / Lavf58.76.100

Video
ID : 1
Format : AVC
Format/Info : Advanced Video Codec
Format profile : [email protected]
Format settings : CABAC / 4 Ref Frames
Format settings, CABAC : Yes
Format settings, Reference : 4 frames
Codec ID : V_MPEG4/ISO/AVC
Duration : 1 h 49 min
Bit rate : 2 500 kb/s
Width : 1 920 pixels
Height : 816 pixels
Display aspect ratio : 2.35:1
Frame rate mode : Constant
Frame rate : 23.976 (24000/1001) FPS
Color space : YUV
Chroma subsampling : 4:2:0
Bit depth : 8 bits
Scan type : Progressive
Bits/(Pixel*Frame) : 0.067
Stream size : 1.89 GiB (72%)
Title : ...::: jeddak MIRCrew :::...
Writing library : x264 core 163
Encoding settings : cabac=1 / ref=3 / deblock=1:0:0 / analyse=0x3:0x113 / me=hex / subme=7 / psy=1 / psy_rd=1.00:0.00 / mixed_ref=1 / me_range=16 / chroma_me=1 / trellis=1 / 8x8dct=1 / cqm=0 / deadzone=21,11 / fast_pskip=1 / chroma_qp_offset=-2 / threads=6 / lookahead_threads=1 / sliced_threads=0 / nr=0 / decimate=1 / interlaced=0 / bluray_compat=0 / constrained_intra=0 / bframes=3 / b_pyramid=2 / b_adapt=1 / b_bias=0 / direct=1 / weightb=1 / open_gop=0 / weightp=2 / keyint=240 / keyint_min=24 / scenecut=40 / intra_refresh=0 / rc_lookahead=40 / rc=abr / mbtree=1 / bitrate=2500 / ratetol=1.0 / qcomp=0.60 / qpmin=0 / qpmax=69 / qpstep=4 / vbv_maxrate=62500 / vbv_bufsize=78125 / nal_hrd=none / filler=0 / ip_ratio=1.40 / aq=1:1.00
Default : Yes
Forced : No
Color range : Limited
Color primaries : BT.709
Transfer characteristics : BT.709
Matrix coefficients : BT.709

Audio #1
ID : 2
Format : AC-3
Format/Info : Audio Coding 3
Commercial name : Dolby Digital
Codec ID : A_AC3
Duration : 1 h 49 min
Bit rate mode : Constant
Bit rate : 448 kb/s
Channel(s) : 6 channels
Channel layout : L R C LFE Ls Rs
Sampling rate : 48.0 kHz
Frame rate : 31.250 FPS (1536 SPF)
Compression mode : Lossy
Delay relative to video : -5 ms
Stream size : 352 MiB (13%)
Title : iTA AC3 5.1
Language : Italian
Service kind : Complete Main
Default : Yes
Forced : No

Audio #2
ID : 3
Format : AC-3
Format/Info : Audio Coding 3
Commercial name : Dolby Digital
Codec ID : A_AC3
Duration : 1 h 49 min
Bit rate mode : Constant
Bit rate : 448 kb/s
Channel(s) : 6 channels
Channel layout : L R C LFE Ls Rs
Sampling rate : 48.0 kHz
Frame rate : 31.250 FPS (1536 SPF)
Compression mode : Lossy
Delay relative to video : -5 ms
Stream size : 352 MiB (13%)
Title : ENG AC3 5.1
Language : English
Service kind : Complete Main
Default : No
Forced : No

Text #1
ID : 4
Format : UTF-8
Codec ID : S_TEXT/UTF8
Codec ID/Info : UTF-8 Plain Text
Title : iTA FORCED - SRT
Language : Italian
Default : No
Forced : Yes

Text #2
ID : 5
Format : PGS
Codec ID : S_HDMV/PGS
Codec ID/Info : Picture based subtitle format used on BDs/HD-DVDs
Duration : 1 h 49 min
Title : iTA FORCED - PGS
Language : Italian
Default : Yes
Forced : Yes

Text #3
ID : 6
Format : UTF-8
Codec ID : S_TEXT/UTF8
Codec ID/Info : UTF-8 Plain Text
Title : ENG FORCED - SRT
Language : English
Default : No
Forced : Yes

Text #4
ID : 7
Format : PGS
Codec ID : S_HDMV/PGS
Codec ID/Info : Picture based subtitle format used on BDs/HD-DVDs
Duration : 1 h 43 min
Title : ENG FORCED - PGS
Language : English
Default : No
Forced : Yes

Text #5
ID : 8
Format : PGS
Codec ID : S_HDMV/PGS
Codec ID/Info : Picture based subtitle format used on BDs/HD-DVDs
Duration : 1 h 49 min
Title : iTA REGULAR - PGS
Language : Italian
Default : No
Forced : No

Text #6
ID : 9
Format : PGS
Codec ID : S_HDMV/PGS
Codec ID/Info : Picture based subtitle format used on BDs/HD-DVDs
Duration : 1 h 43 min
Title : ENG NON UDENTI - PGS
Language : English
Default : No
Forced : No

Menu
00:00:00.000 : Capitolo 01
00:03:53.483 : Capitolo 02
00:09:36.034 : Capitolo 03
00:14:39.253 : Capitolo 04
00:20:37.153 : Capitolo 05
00:24:02.983 : Capitolo 06
00:29:39.111 : Capitolo 07
00:36:44.661 : Capitolo 08
00:40:25.173 : Capitolo 09
00:45:18.716 : Capitolo 10
00:51:29.587 : Capitolo 11
00:55:59.898 : Capitolo 12
00:59:49.711 : Capitolo 13
01:07:09.234 : Capitolo 14
01:13:01.627 : Capitolo 15
01:18:37.171 : Capitolo 16
01:29:03.088 : Capitolo 17
01:34:10.436 : Capitolo 18
01:38:42.750 : Capitolo 19
01:44:19.295 : Capitolo 20

Related Torrents

torrent name size uploader age seed leech
7 GB QxR 1
year
95 77
751 MB YIFY 11
years
46 4
846.4 MB pornworld 6
years
44 17
1 GB Hon3yHD 5
years
43 56
2.5 GB meguil 2
years
37 18


Download torrent
2.6 GB
seeders:41
leechers:10
The.Kingdom.2007.iTA.ENG.AC3.SUB.iTA.ENG.BluRay.1080p.x264.jeddak-MIRCrew


Trackers

tracker name
udp://tracker.torrent.eu.org:451/announce
udp://p4p.arenabg.com:1337/announce
udp://explodie.org:6969/announce
udp://tracker.opentrackr.org:1337/announce
udp://tracker.openbittorrent.com:6969/announce
udp://opentracker.i2p.rocks:6969/announce
udp://exodus.desync.com:6969/announce
udp://ipv4.tracker.harry.lu:80/announce
udp://open.stealth.si:80/announce
µTorrent compatible trackers list

Download torrent
2.6 GB
seeders:41
leechers:10
The.Kingdom.2007.iTA.ENG.AC3.SUB.iTA.ENG.BluRay.1080p.x264.jeddak-MIRCrew


Torrent hash: 7AE0C7B93EA69E119998C1D27C5DC9CDF0E2D89C