The.Last.Airbender.2010.DvDRip.H264.Feel-Free

seeders: 0
leechers: 0
updated:
Added by pitic in Movies > h.264/x264

Download Fast Safe Anonymous
movies, software, shows...
Summary:

The story follows the adventures of Aang, a young successor to a long line of Avatars, who must put his childhood ways aside and stop the Fire Nation from enslaving the Water, Earth and Air nations.

Files

  • The.Last.Airbender.2010.DvDRip.H264.Feel-Free.mp4 (1.0 GB)
  • The.Last.Airbender.2010.DvDRip.H264.Feel-Free.mp4_snapshot_00.55.49_[2010.09.30_13.44.04].jpg (38.6 KB)
  • The.Last.Airbender.2010.DvDRip.H264.Feel-Free.mp4_snapshot_00.03.57_[2010.09.30_13.43.47].jpg (36.0 KB)
  • The.Last.Airbender.2010.DvDRip.H264.Feel-Free.mp4_snapshot_00.32.38_[2010.09.30_13.44.52].jpg (23.9 KB)
  • The.Last.Airbender.2010.DvDRip.H264.Feel-Free.mp4_snapshot_00.37.41_[2010.09.30_13.43.28].jpg (22.5 KB)
  • The.Last.Airbender.2010.DvDRip.H264.Feel-Free.mp4_snapshot_01.19.18_[2010.09.30_13.43.37].jpg (19.8 KB)
  • The_Last_Airbender_1273179114_2010.jpg (13.6 KB)
  • The.Last.Airbender.2010.DvDRip.H264.Feel-Free.nfo (1.8 KB)

Description



Genre:Action | Adventure | Family | Fantasy
Language:English
IMDb:http://www.imdb.com/title/tt0938283/
Source:DVD R1

General
Complete name :The.Last.Airbender.2010.DvDRip.H264.Feel-Free
Format : MPEG-4
Format profile : Base Media
Codec ID : isom
File size : 1.04 GiB
Duration : 1h 43mn
Overall bit rate : 1 436 Kbps
Video #1
ID : 1
Format : MPEG-4 Visual
Format profile : [email protected]
Format settings, BVOP : No
Format settings, QPel : No
Format settings, GMC : No warppoints
Format settings, Matrix : Default (H.263)
Codec ID : 20
Duration : 1h 43mn
Bit rate mode : Variable
Bit rate : 1 199 Kbps
Width : 688 pixels
Height : 288 pixels
Display aspect ratio : 2.35:1
Frame rate mode : Constant
Frame rate : 29.970 fps
Resolution : 24 bits
Colorimetry : 4:2:0
Scan type : Progressive
Bits/(Pixel*Frame) : 0.202
Stream size : 885 MiB (84%)
Audio #2
ID : 2
Format : AAC
Format/Info : Advanced Audio Codec
Format version : Version 4
Format profile : LC
Format settings, SBR : No
Codec ID : 40
Duration : 1h 43mn
Bit rate mode : Variable
Bit rate : 224 Kbps
Channel(s) : 6 channels
Channel positions : Front: L C R, Rear: L R, LFE
Sampling rate : 48.0 KHz
Resolution : 16 bits
Stream size : 171 MiB (16%)

Plot:
The story follows the adventures of Aang, a young successor to a long line of Avatars, who must put his childhood ways aside and stop the Fire Nation from enslaving the Water, Earth and Air nations.

TRAILER:






Related Torrents

torrent name size uploader age seed leech
838.5 MB KatMaster 2
years
91 93
1.4 GB YIFY 7
years
69 4
957.6 MB rock3 2
years
59 50
750.8 MB YIFY 7
years
52 4
1.2 GB PENDUDESI 2
years
23 8


Download torrent
1 GB
seeders:0
leechers:0
The.Last.Airbender.2010.DvDRip.H264.Feel-Free


Trackers

tracker name
http://exodus.1337x.org/announce
http://tracker.publicbt.com/announce
http://nemesis.1337x.org/announce
http://tracker.publicbt.com/announce
http://genesis.1337x.org:1337/announce
http://denis.stalker.h3q.com/announce
http://genesis.1337x.org:1337/announce
http://tracker.publicbt.com:80/announce
http://tracker.openbittorrent.com:80/announce
udp://tracker.1337x.org:80/announce
µTorrent compatible trackers list

Download torrent
1 GB
seeders:0
leechers:0
The.Last.Airbender.2010.DvDRip.H264.Feel-Free


Torrent hash: 760CD22633D08C6140D5E21BE6EC3737C2EB6D21