The.Northman.2022.1080p.BluRay.H264.AAC

seeders: 580
leechers: 109
updated:
Added by TheMorozko in Movies > HD

Download Fast Safe Anonymous
movies, software, shows...
Summary:

Prince Amleth is on the verge of becoming a man when his father is brutally murdered by his uncle, who kidnaps the boy's mother. Two decades later, Amleth is now a Viking who's on a mission to save his mother, kill his uncle and avenge his father.

Files

The.Northman.2022.1080p.BluRay.H264.AAC-RARBG
  • RARBG.txt (0.0 KB)
  • RARBG_DO_NOT_MIRROR.exe (0.1 KB)
  • Subs
    • 3_English.srt (59.1 KB)
    • 4_English.srt (92.6 KB)
  • The.Northman.2022.1080p.BluRay.H264.AAC-RARBG.mp4 (2.6 GB)

Description

Screens... (click to enlarge):








Infolink -> https://www.imdb.com/title/tt11138512/

Mediainfo

Quote:

Video
ID : 1
Format : AVC
Format/Info : Advanced Video Codec
Format profile : [email protected]
Format settings : CABAC / 4 Ref Frames
Format settings, CABAC : Yes
Format settings, Reference frames : 4 frames
Codec ID : avc1
Codec ID/Info : Advanced Video Coding
Duration : 2 h 16 min
Bit rate : 2 500 kb/s
Width : 1 920 pixels
Height : 960 pixels
Display aspect ratio : 2.000
Frame rate mode : Constant
Frame rate : 23.976 (23976/1000) FPS
Color space : YUV
Chroma subsampling : 4:2:0
Bit depth : 8 bits
Scan type : Progressive
Bits/(Pixel*Frame) : 0.057
Stream size : 2.39 GiB (92%)
Writing library : x264 core 152 r2851M ba24899
Encoding settings : cabac=1 / ref=4 / deblock=1:-1:-1 / analyse=0x3:0x113 / me=umh / subme=9 / psy=1 / psy_rd=1.00:0.15 / mixed_ref=1 / me_range=24 / chroma_me=1 / trellis=2 / 8x8dct=1 / cqm=0 / deadzone=21,11 / fast_pskip=1 / chroma_qp_offset=-3 / threads=16 / lookahead_threads=4 / sliced_threads=0 / nr=0 / decimate=1 / interlaced=0 / bluray_compat=0 / constrained_intra=0 / bframes=3 / b_pyramid=2 / b_adapt=2 / b_bias=0 / direct=3 / weightb=1 / open_gop=0 / weightp=2 / keyint=250 / keyint_min=25 / scenecut=40 / intra_refresh=0 / rc_lookahead=50 / rc=2pass / mbtree=1 / bitrate=2500 / ratetol=1.0 / qcomp=0.60 / qpmin=0 / qpmax=69 / qpstep=4 / cplxblur=20.0 / qblur=0.5 / vbv_maxrate=31250 / vbv_bufsize=31250 / nal_hrd=none / filler=0 / ip_ratio=1.40 / aq=3:1.00
Encoded date : UTC 2022-05-22 16:27:47
Tagged date : UTC 2022-05-22 16:27:47
Codec configuration box : avcC

Audio
ID : 2
Format : AAC LC
Format/Info : Advanced Audio Codec Low Complexity
Codec ID : mp4a-40-2
Duration : 2 h 16 min
Bit rate mode : Constant
Bit rate : 224 kb/s
Channel(s) : 6 channels
Channel layout : C L R Ls Rs LFE
Sampling rate : 48.0 kHz
Frame rate : 46.875 FPS (1024 SPF)
Compression mode : Lossy
Stream size : 219 MiB (8%)
Language : English
Default : Yes
Alternate group : 1
Encoded date : UTC 2022-05-22 16:27:47
Tagged date : UTC 2022-05-22 16:27:47

Related Torrents

torrent name size uploader age seed leech
9 GB TheMorozko 1
month
6454 1749
2.6 GB TheMorozko 1
month
4848 2379
2.1 GB TheMorozko 1
month
3724 949
897.4 MB TGxGoodies 1
month
2924 2085
1.6 GB TGxGoodies 1
month
1453 1149


Download torrent
2.6 GB
seeders:580
leechers:109
The.Northman.2022.1080p.BluRay.H264.AAC


Trackers

tracker name
http://tracker.trackerfix.com:80/announce
udp://9.rarbg.me:2770/announce
udp://9.rarbg.to:2940/announce
udp://tracker.fatkhoala.org:13720/announce
udp://tracker.slowcheetah.org:14720/announce
µTorrent compatible trackers list

Download torrent
2.6 GB
seeders:580
leechers:109
The.Northman.2022.1080p.BluRay.H264.AAC


Torrent hash: 51CB34CBFE0155287239EC332FA2A0EAA7581DC7