The.Other.Boleyn.Girl.2008.1080p.NF.WEB-DL.HIN-ENG.DDP5.1.x264-Telly

seeders: 17
leechers: 3
updated:

Download Fast Safe Anonymous
movies, software, shows...
Summary:

A sumptuous and sensual tale of intrigue, romance and betrayal set against the backdrop of a defining moment in European history: two beautiful sisters, Anne and Mary Boleyn, driven by their family's blind ambition, compete for the love of the handsome and passionate King Henry VIII.

Files

  • The.Other.Boleyn.Girl.2008.1080p.NF.WEB-DL.HIN-ENG.DDP5.1.x264-Telly.mkv (7.1 GB)

Description



General
Unique ID                                : 47982925222973664588092481800257543763 (0x24192CDD39897A57E16C19465A3A1E53)
Complete name                            : D:\The.Other.Boleyn.Girl.2008.1080p.NF.WEB-DL.HIN-ENG.DDP5.1.x264-Telly.mkv
Format                                   : Matroska
Format version                           : Version 4
File size                                : 7.07 GiB
Duration                                 : 1 h 55 min
Overall bit rate mode                    : Variable
Overall bit rate                         : 8 769 kb/s
Movie name                               : Telly
Encoded date                             : UTC 2020-11-26 05:49:13
Writing application                      : mkvmerge v44.0.0 ('Domino') 64-bit
Writing library                          : libebml v1.3.10 + libmatroska v1.5.2
Video
ID                                       : 1
Format                                   : AVC
Format/Info                              : Advanced Video Codec
Format profile                           : [email protected]
Format settings                          : CABAC / 3 Ref Frames
Format settings, CABAC                   : Yes
Format settings, Reference frames        : 3 frames
Codec ID                                 : V_MPEG4/ISO/AVC
Duration                                 : 1 h 55 min
Bit rate mode                            : Variable
Bit rate                                 : 7 500 kb/s
Maximum bit rate                         : 11.2 Mb/s
Width                                    : 1 920 pixels
Height                                   : 1 080 pixels
Display aspect ratio                     : 16:9
Frame rate mode                          : Constant
Frame rate                               : 23.976 (24000/1001) FPS
Color space                              : YUV
Chroma subsampling                       : 4:2:0
Bit depth                                : 8 bits
Scan type                                : Progressive
Bits/(Pixel*Frame)                       : 0.151
Stream size                              : 6.04 GiB (85%)
Writing library                          : x264 core 118
Encoding settings                        : cabac=1 / ref=3 / deblock=1:0:0 / analyse=0x1:0x111 / me=umh / subme=10 / psy=1 / psy_rd=1.00:0.00 / mixed_ref=1 / me_range=24 / chroma_me=1 / trellis=2 / 8x8dct=0 / cqm=0 / deadzone=21,11 / fast_pskip=1 / chroma_qp_offset=-2 / threads=6 / sliced_threads=0 / nr=0 / decimate=1 / interlaced=0 / bluray_compat=0 / constrained_intra=0 / bframes=2 / b_pyramid=0 / b_adapt=2 / b_bias=0 / direct=3 / weightb=1 / open_gop=0 / weightp=2 / keyint=48 / keyint_min=25 / scenecut=0 / intra_refresh=0 / rc_lookahead=0 / rc=2pass / mbtree=1 / bitrate=7500 / ratetol=1.0 / qcomp=0.50 / qpmin=6 / qpmax=51 / qpstep=4 / cplxblur=20.0 / qblur=0.5 / vbv_maxrate=11250 / vbv_bufsize=15000 / nal_hrd=vbr / ip_ratio=1.40 / aq=1:1.00
Default                                  : Yes
Forced                                   : No
Audio #1
ID                                       : 2
Format                                   : E-AC-3
Format/Info                              : Enhanced AC-3
Commercial name                          : Dolby Digital Plus
Codec ID                                 : A_EAC3
Duration                                 : 1 h 55 min
Bit rate mode                            : Constant
Bit rate                                 : 640 kb/s
Channel(s)                               : 6 channels
Channel layout                           : L R C LFE Ls Rs
Sampling rate                            : 48.0 kHz
Frame rate                               : 31.250 FPS (1536 SPF)
Compression mode                         : Lossy
Stream size                              : 528 MiB (7%)
Title                                    : Hindi
Language                                 : Hindi
Service kind                             : Complete Main
Default                                  : Yes
Forced                                   : No
Audio #2
ID                                       : 3
Format                                   : E-AC-3
Format/Info                              : Enhanced AC-3
Commercial name                          : Dolby Digital Plus
Codec ID                                 : A_EAC3
Duration                                 : 1 h 55 min
Bit rate mode                            : Constant
Bit rate                                 : 640 kb/s
Channel(s)                               : 6 channels
Channel layout                           : L R C LFE Ls Rs
Sampling rate                            : 48.0 kHz
Frame rate                               : 31.250 FPS (1536 SPF)
Compression mode                         : Lossy
Stream size                              : 528 MiB (7%)
Title                                    : English
Language                                 : English
Service kind                             : Complete Main
Default                                  : No
Forced                                   : No





Related Torrents

torrent name size uploader age seed leech
599.4 MB CharlieJade 6
years
45 2
3.6 GB sp3ll 1
year
25 2
1.2 GB Hon3yHD 4
years
21 18
4.1 GB McuDudeS 1
year
8 4
1 GB Thegopisahi 1
year
7 5


Download torrent
7.1 GB
seeders:17
leechers:3
The.Other.Boleyn.Girl.2008.1080p.NF.WEB-DL.HIN-ENG.DDP5.1.x264-Telly


Trackers

tracker name
udp://tracker.coppersurfer.tk:6969/announce
udp://tracker.leechers-paradise.org:6969/announce
udp://open.stealth.si:80/announce
udp://tracker.internetwarriors.net:1337/announce
udp://tracker.openbittorrent.com:80/announce
udp://explodie.org:6969/announce
udp://tracker.opentrackr.org:1337/announce
udp://tracker.tiny-vps.com:6969/announce
udp://open.demonii.si:1337/announce
udp://tracker.torrent.eu.org:451/announce
udp://tracker.pirateparty.gr:6969/announce
udp://ipv4.tracker.harry.lu:80/announce
udp://tracker.cyberia.is:6969/announce
udp://9.rarbg.to:2710/announce
udp://denis.stalker.upeer.me:6969/announce
µTorrent compatible trackers list

Download torrent
7.1 GB
seeders:17
leechers:3
The.Other.Boleyn.Girl.2008.1080p.NF.WEB-DL.HIN-ENG.DDP5.1.x264-Telly


Torrent hash: 8588C2EF9FB74D420E88BC00991ADE6C0D5B8158