The.Rig.2010.DvdRip.x264.LKRG

seeders: 0
leechers: 0
updated:
Added by partsguy in Movies > h.264/x264

Download Fast Safe Anonymous
movies, software, shows...
Summary:

In the midst of a tropical storm, the crew of an offshore oil rig must survive the rampage of a creature after invading its undersea habitat.

Files

  • The.Rig.2010.DvdRip.x264.LKRG.part22.rar (14.0 MB)
  • The.Rig.2010.DvdRip.x264.LKRG.part01.rar (14.0 MB)
  • The.Rig.2010.DvdRip.x264.LKRG.part02.rar (14.0 MB)
  • The.Rig.2010.DvdRip.x264.LKRG.part03.rar (14.0 MB)
  • The.Rig.2010.DvdRip.x264.LKRG.part04.rar (14.0 MB)
  • The.Rig.2010.DvdRip.x264.LKRG.part05.rar (14.0 MB)
  • The.Rig.2010.DvdRip.x264.LKRG.part06.rar (14.0 MB)
  • The.Rig.2010.DvdRip.x264.LKRG.part07.rar (14.0 MB)
  • The.Rig.2010.DvdRip.x264.LKRG.part08.rar (14.0 MB)
  • The.Rig.2010.DvdRip.x264.LKRG.part09.rar (14.0 MB)
  • The.Rig.2010.DvdRip.x264.LKRG.part10.rar (14.0 MB)
  • The.Rig.2010.DvdRip.x264.LKRG.part11.rar (14.0 MB)
  • The.Rig.2010.DvdRip.x264.LKRG.part12.rar (14.0 MB)
  • The.Rig.2010.DvdRip.x264.LKRG.part13.rar (14.0 MB)
  • The.Rig.2010.DvdRip.x264.LKRG.part14.rar (14.0 MB)
  • The.Rig.2010.DvdRip.x264.LKRG.part15.rar (14.0 MB)
  • The.Rig.2010.DvdRip.x264.LKRG.part16.rar (14.0 MB)
  • The.Rig.2010.DvdRip.x264.LKRG.part17.rar (14.0 MB)
  • The.Rig.2010.DvdRip.x264.LKRG.part18.rar (14.0 MB)
  • The.Rig.2010.DvdRip.x264.LKRG.part19.rar (14.0 MB)
  • The.Rig.2010.DvdRip.x264.LKRG.part20.rar (14.0 MB)
  • The.Rig.2010.DvdRip.x264.LKRG.part21.rar (14.0 MB)
  • The.Rig.2010.DvdRip.x264.LKRG.part33.rar (14.0 MB)
  • The.Rig.2010.DvdRip.x264.LKRG.part23.rar (14.0 MB)
  • The.Rig.2010.DvdRip.x264.LKRG.part24.rar (14.0 MB)
  • The.Rig.2010.DvdRip.x264.LKRG.part25.rar (14.0 MB)
  • The.Rig.2010.DvdRip.x264.LKRG.part26.rar (14.0 MB)
  • The.Rig.2010.DvdRip.x264.LKRG.part27.rar (14.0 MB)
  • The.Rig.2010.DvdRip.x264.LKRG.part28.rar (14.0 MB)
  • The.Rig.2010.DvdRip.x264.LKRG.part29.rar (14.0 MB)
  • The.Rig.2010.DvdRip.x264.LKRG.part30.rar (14.0 MB)
  • The.Rig.2010.DvdRip.x264.LKRG.part31.rar (14.0 MB)
  • The.Rig.2010.DvdRip.x264.LKRG.part32.rar (14.0 MB)
  • The.Rig.2010.DvdRip.x264.LKRG.part39.rar (14.0 MB)
  • The.Rig.2010.DvdRip.x264.LKRG.part34.rar (14.0 MB)
  • The.Rig.2010.DvdRip.x264.LKRG.part35.rar (14.0 MB)
  • The.Rig.2010.DvdRip.x264.LKRG.part36.rar (14.0 MB)
  • The.Rig.2010.DvdRip.x264.LKRG.part37.rar (14.0 MB)
  • The.Rig.2010.DvdRip.x264.LKRG.part38.rar (14.0 MB)
  • The.Rig.2010.DvdRip.x264.LKRG.part40.rar (14.0 MB)
  • The.Rig.2010.DvdRip.x264.LKRG.part41.rar (14.0 MB)
  • The.Rig.2010.DvdRip.x264.LKRG.part42.rar (14.0 MB)
  • The.Rig.2010.DvdRip.x264.LKRG.part43.rar (1.5 MB)
  • LKRG_NFO.nfo (9.4 KB)
  • The.Rig.2010.DvdRip.x264.LKRG.sfv (5.5 KB)

Description






As a tropical storm approaches the Louisiana coast, all non-essential personnel are evacuated off the huge "Charlie" oil rig. The remaining workers batten down the hatches, unaware that a voracious evil threatens their lives more than any hurricane. As the night stretches out before them, the nervous crew realizes that a man is missing, and a search for him reveals that they are being stalked by a bloodthirsty creature intent on killing them all.


Video
ID : 1
Format : AVC
Format/Info : Advanced Video Codec
Format profile : [email protected]
Format settings, CABAC : Yes
Format settings, ReFrames : 2 frames
Codec ID : avc1
Codec ID/Info : Advanced Video Coding
Duration : 1h 34mn
Bit rate mode : Variable
Bit rate : 711 Kbps
Width : 718 pixels
Height : 480 pixels
Display aspect ratio : 16:9
Frame rate mode : Variable
Frame rate : 23.976 fps
Minimum frame rate : 14.985 fps
Maximum frame rate : 29.970 fps
Color space : YUV
Chroma subsampling : 4:2:0
Bit depth : 8 bits
Scan type : Progressive
Bits/(Pixel*Frame) : 0.086
Stream size : 479 MiB (81%)
Writing library : x264 core 79

Audio
ID : 2
Format : AAC
Format/Info : Advanced Audio Codec
Format version : Version 4
Format profile : LC
Format settings, SBR : No
Codec ID : 40
Duration : 1h 34mn
Bit rate mode : Variable
Bit rate : 160 Kbps
Maximum bit rate : 229 Kbps
Channel(s) : 2 channels
Channel positions : Front: L R
Sampling rate : 48.0 KHz
Stream size : 108 MiB (18%)
Language : English











Greetz to all other respected RG's out there. Let the Legend Killing Continue

Related Torrents

torrent name size uploader age seed leech
1.2 GB piratepedia 9
years
1 0
1 GB ReleaseLounge 9
years
1 0
1.1 GB BlueLady 9
years
1 0
697.2 MB striker123 9
years
0 1


Download torrent
588 MB
seeders:0
leechers:0
The.Rig.2010.DvdRip.x264.LKRG


Trackers

tracker name
http://exodus.1337x.org/announce
http://nemesis.1337x.org/announce
http://genesis.1337x.org:1337/announce
http://tracker.bitreactor.to:2710/announce
http://open-tracker.info:6969/announce
http://11.rarbg.com:80/announce
http://10.rarbg.com:80/announce
http://tracker.openbittorrent.com/announce
http://pow7.com:80/announce
http://tracker.publicbt.com/announce
http://tracker.publicbt.com:80/announce
http://tracker.openbittorrent.com:80/announce
udp://tracker.1337x.org:80/announce
µTorrent compatible trackers list

Download torrent
588 MB
seeders:0
leechers:0
The.Rig.2010.DvdRip.x264.LKRG


Torrent hash: 1298D03FDB76400E57CFDCA4F9980DBC3AC8A86A