The Vigilante 2023 1080p WEBRip-SMILEY

seeders: 169
leechers: 91
updated:
Added by mazemaze16 in Movies > h.264/x264

Download Fast Safe Anonymous
movies, software, shows...
Summary:

Returning from Afghanistan, Jessica, a Spec OPS Marine, finds herself in a war she never imagined and discovers middle America suburbia has changed when her thirteen year old sister, Aimee, is abducted by sex traffickers.

Files

  • The Vigilante 2023 1080p WEBRip-SMILEY.mp4 (1.5 GB)

Description



The Vigilante 2023 1080p WEBRip-SMILEY



Thriller

When a Marine returns home from deployment overseas, she goes to war against human traffickers who have kidnapped her 13-year-old sister.

Complete name : The Vigilante 2023 1080p WEBRip-SMILEY
Format : MPEG-4
Format profile : Base Media
Codec ID : isom (mp41/avc1)
File size : 1.51 GiB
Duration : 1 h 41 min
Overall bit rate : 2 136 kb/s
Frame rate : 23.976 FPS

Video
ID : 2
Format : AVC
Format/Info : Advanced Video Codec
Format profile : High@L4
Format settings : CABAC / 4 Ref Frames
Format settings, CABAC : Yes
Format settings, Reference frames : 4 frames
Codec ID : avc1
Codec ID/Info : Advanced Video Coding
Duration : 1 h 41 min
Bit rate : 2 003 kb/s
Width : 1 920 pixels
Height : 1 080 pixels
Display aspect ratio : 16:9
Frame rate : 23.976 (23976/1000) FPS
Color space : YUV
Chroma subsampling : 4:2:0
Bit depth : 8 bits
Scan type : Progressive
Bits/(Pixel*Frame) : 0.040
Stream size : 1.42 GiB (94%)
Writing library : x264 core 155


Audio
ID : 1
Format : MPEG Audio
Format version : Version 1
Format profile : Layer 2
Codec ID : mp4a-6B
Duration : 1 h 41 min
Bit rate mode : Constant
Bit rate : 128 kb/s
Channel(s) : 2 channels
Sampling rate : 44.1 kHz
Compression mode : Lossy
Stream size : 92.7 MiB (6%)
Language : English


Screens:





Download torrent
1.5 GB
seeders:169
leechers:91
The Vigilante 2023 1080p WEBRip-SMILEY


Trackers

tracker name
udp://tracker.opentrackr.org:1337/announce
udp://exodus.desync.com:6969/announce
udp://9.rarbg.me:2970/announce
udp://tracker.opentrackr.org:1337/announce
udp://tracker.tiny-vps.com:6969/announce
udp://tracker.internetwarriors.net:1337/announce
udp://opentor.org:2710/announce
udp://tracker.torrent.eu.org:451/announce
udp://explodie.org:6969/announce
udp://tracker.moeking.me:6969/announce
udp://tracker.cyberia.is:6969/announce
udp://9.rarbg.me:2980/announce
udp://9.rarbg.to:2940/announce
udp://tracker.uw0.xyz:6969/announce
udp://tracker.openbittorrent.com:1337/announce
µTorrent compatible trackers list

Download torrent
1.5 GB
seeders:169
leechers:91
The Vigilante 2023 1080p WEBRip-SMILEY


Torrent hash: DE797886D80C624728CDA46556C8DE9FD0CEB837