The.Witcher.Blood.Origin.S01E02.Of.Dreams.Defiance.And.Desperate.Deeds.1080p.ENGLISH-HINDI.NF.10bit.DDP.5.1.x265.[HashMiner]

seeders: 16
leechers: 19
updated:
Added by HashMiner in TV > HEVC/x265

Download Fast Safe Anonymous
movies, software, shows...

Files

The.Witcher.Blood.Origin.S01E02.Of.Dreams.Defiance.And.Desperate.Deeds.1080p.ENGLISH-HINDI.NF.10bit.DDP.5.1.x265.[HashMiner]
  • The.Witcher.Blood.Origin.S01E02.Of.Dreams.Defiance.And.Desperate.Deeds.1080p.ENGLISH-HINDI.NF.10bit.DDP.5.1.x265.[HashMiner].mkv (1.2 GB)
  • Uploaded by HashMiner! [ReadMe].txt (1.5 KB)

Description




Encoded by HashMiner!


1337x  |  TorrentGalaxy





 ══════════════════════════════════════════════════════════════════════════
Audio Language:   English, Hindi 
Subtitles Included: English.


 ══════════════════════════════════════════════════════════════════════════











Genre: Action Adventure Drama
Stars : Sophia Brown, Laurence O'Fuarain, Mirren Mack 
Plot : More than a thousand years before the events of "The Witcher," seven outcasts in an Elven world join forces in a quest against an all-powerful empire.


 ══════════════════════════════════════════════════════════════════════════








══════════════════════════════════════════════════════════════════════════



Quote:

Code:

General
Unique ID : 122023244429752667379712522857099338170 (0x5BCCD270F116A230ECC6412C03ACA1BA)
Complete name : THEWIT~1.MKV
Format : Matroska
Format version : Version 4
File size : 1.21 GiB
Duration : 48 min 40 s
Overall bit rate : 3 547 kb/s
Writing library : Lavf58.76.100
ErrorDetectionType : Per level 1

Video
ID : 1
Format : HEVC
Format/Info : High Efficiency Video Coding
Format profile : Main [email protected]@Main
Codec ID : V_MPEGH/ISO/HEVC
Duration : 48 min 40 s
Bit rate : 2 452 kb/s
Width : 1 920 pixels
Height : 960 pixels
Display aspect ratio : 2.000
Frame rate mode : Constant
Frame rate : 24.000 FPS
Color space : YUV
Chroma subsampling : 4:2:0 (Type 0)
Bit depth : 10 bits
Bits/(Pixel*Frame) : 0.055
Stream size : 854 MiB (69%)
Title : Encoded by HashMiner!
Writing library : x265 3.5+1-f0c1022b6:[Windows][GCC 10.2.0][64 bit] 10bit
Encoding settings : cpuid=1111039 / frame-threads=5 / numa-pools=32 / wpp / no-pmode / no-pme / no-psnr / no-ssim / log-level=2 / input-csp=1 / input-res=1920x960 / interlace=0 / total-frames=0 / level-idc=0 / high-tier=1 / uhd-bd=0 / ref=1 / no-allow-non-conformance / no-repeat-headers / annexb / no-aud / no-hrd / info / hash=0 / no-temporal-layers / open-gop / min-keyint=24 / keyint=240 / gop-lookahead=0 / bframes=3 / b-adapt=0 / b-pyramid / bframe-bias=0 / rc-lookahead=5 / lookahead-slices=6 / scenecut=0 / hist-scenecut=0 / radl=0 / no-splice / no-intra-refresh / ctu=32 / min-cu-size=16 / no-rect / no-amp / max-tu-size=32 / tu-inter-depth=1 / tu-intra-depth=1 / limit-tu=0 / rdoq-level=0 / dynamic-rd=0.00 / no-ssim-rd / no-signhide / no-tskip / nr-intra=0 / nr-inter=0 / no-constrained-intra / strong-intra-smoothing / max-merge=2 / limit-refs=0 / no-limit-modes / me=0 / subme=32 / merange=57 / temporal-mvp / no-frame-dup / no-hme / no-weightp / no-weightb / no-analyze-src-pics / deblock=1:1 / no-sao / no-sao-non-deblock / rd=2 / selective-sao=0 / early-skip / rskip / fast-intra / no-tskip-fast / no-cu-lossless / no-b-intra / no-splitrd-skip / rdpenalty=0 / psy-rd=0.40 / psy-rdoq=0.00 / no-rd-refine / no-lossless / cbqpoffs=0 / crqpoffs=0 / rc=abr / bitrate=2700 / qcomp=0.60 / qpstep=4 / stats-write=0 / stats-read=0 / ipratio=1.40 / pbratio=1.30 / aq-mode=1 / aq-strength=0.00 / cutree / zone-count=0 / no-strict-cbr / qg-size=32 / no-rc-grain / qpmax=69 / qpmin=0 / no-const-vbv / sar=1 / overscan=0 / videoformat=5 / range=0 / colorprim=1 / transfer=1 / colormatrix=1 / chromaloc=1 / chromaloc-top=0 / chromaloc-bottom=0 / display-window=0 / cll=0,0 / min-luma=0 / max-luma=1023 / log2-max-poc-lsb=8 / vui-timing-info / vui-hrd-info / slices=1 / no-opt-qp-pps / no-opt-ref-list-length-pps / no-multi-pass-opt-rps / scenecut-bias=0.05 / hist-threshold=0.03 / no-opt-cu-delta-qp / no-aq-motion / no-hdr10 / no-hdr10-opt / no-dhdr10-opt / no-idr-recovery-sei / analysis-reuse-level=0 / analysis-save-reuse-level=0 / analysis-load-reuse-level=0 / scale-factor=0 / refine-intra=0 / refine-inter=0 / refine-mv=1 / refine-ctu-distortion=0 / no-limit-sao / ctu-info=0 / no-lowpass-dct / refine-analysis-type=0 / copy-pic=1 / max-ausize-factor=1.0 / no-dynamic-refine / no-single-sei / no-hevc-aq / no-svt / no-field / qp-adaptation-range=1.00 / scenecut-aware-qp=0conformance-window-offsets / right=0 / bottom=0 / decoder-max-rate=0 / no-vbv-live-multi-pass
Default : Yes
Forced : No
Color range : Limited
Color primaries : BT.709
Transfer characteristics : BT.709
Matrix coefficients : BT.709

Audio #1
ID : 2
Format : E-AC-3
Format/Info : Enhanced AC-3
Commercial name : Dolby Digital Plus
Codec ID : A_EAC3
Duration : 48 min 40 s
Bit rate mode : Constant
Bit rate : 512 kb/s
Channel(s) : 6 channels
Channel layout : L R C LFE Ls Rs
Sampling rate : 48.0 kHz
Frame rate : 31.250 FPS (1536 SPF)
Compression mode : Lossy
Delay relative to video : -5 ms
Stream size : 178 MiB (14%)
Language : English
Service kind : Complete Main
Default : Yes
Forced : No

Audio #2
ID : 3
Format : E-AC-3
Format/Info : Enhanced AC-3
Commercial name : Dolby Digital Plus
Codec ID : A_EAC3
Duration : 48 min 40 s
Bit rate mode : Constant
Bit rate : 512 kb/s
Channel(s) : 6 channels
Channel layout : L R C LFE Ls Rs
Sampling rate : 48.0 kHz
Frame rate : 31.250 FPS (1536 SPF)
Compression mode : Lossy
Delay relative to video : -5 ms
Stream size : 178 MiB (14%)
Language : Hindi
Service kind : Complete Main
Default : No
Forced : No

Text #1
ID : 4
Format : ASS
Codec ID : S_TEXT/ASS
Codec ID/Info : Advanced Sub Station Alpha
Compression mode : Lossless
Default : No
Forced : No

Text #2
ID : 5
Format : ASS
Codec ID : S_TEXT/ASS
Codec ID/Info : Advanced Sub Station Alpha
Compression mode : Lossless
Default : No
Forced : No


 ══════════════════════════════════════════════════════════════════════════





If you like my Encodes, Please consider donating


Bitcoin: 13Gm1RLtiLspyL7NrXZmeVKCXHTC5Eih1h


Ethereum: 0x1bA096179a4E3f9d6Ce3F89Ba7b9Ff94c325AdE8


Monero:
469v2aUdtVuH8VAU9fuPkNHA2gdkkST9p8QEZ1NyBCX2ekH47R6cpb77i2j7zG989v34GiZgW8eqcDnTTAzFmexE2cPRCzA




Download torrent
1.2 GB
seeders:16
leechers:19
The.Witcher.Blood.Origin.S01E02.Of.Dreams.Defiance.And.Desperate.Deeds.1080p.ENGLISH-HINDI.NF.10bit.DDP.5.1.x265.[HashMiner]


Trackers

tracker name
udp://open.stealth.si:80/announce
udp://tracker.opentrackr.org:1337/announce
udp://tracker.torrent.eu.org:451/announce
udp://opentor.org:2710/announce
udp://tracker.openbittorrent.com:6969/announce
udp://tracker.moeking.me:6969/announce
udp://explodie.org:6969/announce
µTorrent compatible trackers list

Download torrent
1.2 GB
seeders:16
leechers:19
The.Witcher.Blood.Origin.S01E02.Of.Dreams.Defiance.And.Desperate.Deeds.1080p.ENGLISH-HINDI.NF.10bit.DDP.5.1.x265.[HashMiner]


Torrent hash: A2618719872BD76FFD33643AC081C54CD596B13E