Top.Gun.Maverick.2022.KORSUB.IMAX.1080p.WEBRip.AAC2.0.x264-SHITBOX

seeders: 6340
leechers: 1692
updated:
Added by prudence25 in Movies > HD

Download Fast Safe Anonymous
movies, software, shows...
Summary:

After more than thirty years of service as one of the Navy's top aviators, Pete Mitchell is where he belongs, pushing the envelope as a courageous test pilot and dodging the advancement in rank that would ground him.

Files

Top.Gun.Maverick.2022.KORSUB.IMAX.1080p.WEBRip.AAC2.0.x264-SHITBOX
  • RARBG.txt (0.0 KB)
  • Top.Gun.Maverick.2022.KORSUB.IMAX.1080p.WEBRip.AAC2.0.x264-SHITBOX.mkv (5.7 GB)

Description




https://www.imdb.com/title/tt1745960/






Video
ID : 1
Format : AVC
Format/Info : Advanced Video Codec
Format profile : [email protected]
Format settings : CABAC / 2 Ref Frames
Format settings, CABAC : Yes
Format settings, Reference frames : 2 frames
Codec ID : V_MPEG4/ISO/AVC
Duration : 2 h 10 min
Bit rate : 5 993 kb/s
Width : 1 920 pixels
Height : 1 080 pixels
Display aspect ratio : 16:9
Frame rate mode : Constant
Frame rate : 23.976 (24000/1001) FPS
Color space : YUV
Chroma subsampling : 4:2:0
Bit depth : 8 bits
Scan type : Progressive
Bits/(Pixel*Frame) : 0.121
Stream size : 5.45 GiB (96%)
Writing library : x264 core 155 r2901 7d0ff22
Default : Yes
Forced : No
Color range : Limited
Color primaries : BT.709
Transfer characteristics : BT.709
Matrix coefficients : BT.709

Audio
ID : 2
Format : AAC LC
Format/Info : Advanced Audio Codec Low Complexity
Codec ID : A_AAC-2
Duration : 2 h 10 min
Bit rate : 256 kb/s
Channel(s) : 2 channels
Channel layout : L R
Sampling rate : 44.1 kHz
Frame rate : 43.066 FPS (1024 SPF)
Compression mode : Lossy
Stream size : 238 MiB (4%)
Language : English
Default : Yes
Forced : No

Text #1
ID : 3
Format : UTF-8
Codec ID : S_TEXT/UTF8
Codec ID/Info : UTF-8 Plain Text
Duration : 2 h 1 min
Bit rate : 57 b/s
Frame rate : 0.216 FPS
Count of elements : 1568
Stream size : 51.1 KiB (0%)
Language : English
Default : Yes
Forced : No

Text #2
ID : 4
Format : UTF-8
Codec ID : S_TEXT/UTF8
Codec ID/Info : UTF-8 Plain Text
Duration : 2 h 1 min
Bit rate : 63 b/s
Frame rate : 0.241 FPS
Count of elements : 1762
Stream size : 56.7 KiB (0%)
Title : SDH
Language : English
Default : No
Forced : No

Related Torrents

torrent name size uploader age seed leech
3 GB mazemaze16 4
months
3680 2361
1.6 GB TGxGoodies 1
month
2293 641
5.4 GB prudence25 1
month
1556 287
896.7 MB TGxGoodies 1
month
1421 309
5.7 GB TGxGoodies 1
month
1251 334


Download torrent
5.7 GB
seeders:6340
leechers:1692
Top.Gun.Maverick.2022.KORSUB.IMAX.1080p.WEBRip.AAC2.0.x264-SHITBOX


Trackers

tracker name
http://tracker.trackerfix.com:80/announce
udp://9.rarbg.me:2940/announce
udp://9.rarbg.to:2770/announce
udp://tracker.tallpenguin.org:15710/announce
udp://tracker.thinelephant.org:12710/announce
µTorrent compatible trackers list

Download torrent
5.7 GB
seeders:6340
leechers:1692
Top.Gun.Maverick.2022.KORSUB.IMAX.1080p.WEBRip.AAC2.0.x264-SHITBOX


Torrent hash: A6E449C2281E62EDBF8CDB447413CA288CF0E568