Twilight Saga New Moon[2009]DvDrip MXMG

seeders: 0
leechers: 0
updated:
Added by MXMG in Movies > Divx/Xvid

Download Fast Safe Anonymous
movies, software, shows...
Summary:

Forks, Washington resident Bella Swan is reeling from the departure of her vampire love, Edward Cullen, and finds comfort in her friendship with Jacob Black, a werewolf. But before she knows it, she's thrust into a centuries-old conflict, and her desire to be with Edward at any cost leads her to take greater and greater risks.

Files

  • Twilight New Moon[2009]DvDrip MXMG.avi (700.2 MB)
  • Screens.jpg (558.1 KB)
  • Movie Poster.jpg (133.4 KB)
  • Info.txt (2.4 KB)

Description


General
Complete name : Twilight New Moon[2009]DvDrip MXMG
Format : AVI
Format/Info : Audio Video Interleave
File size : 700 MiB
Duration : 2h 10mn
Overall bit rate : 750 Kbps
Writing application : VirtualDubMod 1.5.10.2 (build 2540/release)
Writing library : VirtualDubMod build 2540/release



Video
Format : MPEG-4 Visual
Format profile : Advanced [email protected]
Format settings, BVOP : Yes
Format settings, QPel : No
Format settings, GMC : No warppoints
Format settings, Matrix : Default (H.263)
Muxing mode : Packed bitstream
Codec ID : XVID
Codec ID/Hint : XviD
Duration : 2h 10mn
Bit rate : 584 Kbps
Width : 640 pixels
Height : 272 pixels
Display aspect ratio : 2.35:1
Frame rate : 23.976 fps
Resolution : 8 bits
Colorimetry : 4:2:0
Scan type : Progressive
Bits/(Pixel*Frame) : 0.140
Stream size : 545 MiB (78%)
Writing library : XviD 1.3.0.dev55




Audio
ID : 1
Format : MPEG Audio
Format version : Version 1
Format profile : Layer 3
Mode : Joint stereo
Format_Settings_ModeExtension : MS Stereo
Codec ID : 55
Codec ID/Hint : MP3
Duration : 2h 10mn
Bit rate mode : Variable
Bit rate : 153 Kbps
Minimum bit rate : 32.0 Kbps
Channel(s) : 2 channels
Sampling rate : 48.0 KHz
Stream size : 143 MiB (20%)
Alignment : Aligned on interleaves
Interleave, duration : 24 ms (0.58 video frame)
Interleave, preload duration : 120 ms
Writing library : LAME3.98b
Encoding settings : -m j -V 3 -q 0 -lowpass 18 --vbr-new -b 32



http://www.imdb.com/title/tt1259571/


Screenshots:-




Don't forget to say...


Related Torrents

torrent name size uploader age seed leech
702.5 MB YIFY 6
years
341 22
1.9 GB YIFY 5
years
137 20
2.2 GB nsh168810 7
years
3 2
1 GB parshant8 6
years
3 1
885.2 MB AloN 8
years
2 0


Download torrent
700.9 MB
seeders:0
leechers:0
Twilight Saga New Moon[2009]DvDrip MXMG


Trackers

tracker name
http://tracker.openbittorrent.com/announce
http://genesis.1337x.org:1337/announce
udp://denis.stalker.h3q.com:6969/announce
http://denis.stalker.h3q.com:6969/announce
http://tracker.publicbt.com/announce
udp://tracker.publicbt.com:80/announce
udp://tracker.openbittorrent.com:80/announce
http://tracker.xpear.de:6969/announce
http://harryy.us:8080/announce
http://tracker.irc.su:80/announce
http://tracker.ex.ua:80/announce
http://tracker.prq.to/announce
http://tracker.ilibr.org:6969/announce
http://tracker.xpear.de/announce
http://tracker.token.ro:80/announce
http://tracker.istole.it:80/announce
http://photodiode.mine.nu:6969/announce
http://tracker.istole.it/announce
http://photodiode.mine.nu/announce
http://tracker.edgebooster.com:6969/announce
http://announce.bittoxic.com/announce.php
udp://tracker.1337x.org:80/announce
µTorrent compatible trackers list

Download torrent
700.9 MB
seeders:0
leechers:0
Twilight Saga New Moon[2009]DvDrip MXMG


Torrent hash: 6A9B8CCD2C7C286BF779F41CDEC739FC22AA258C