Vengeance.2022.1080p.WEBRip.DDP5.1.Atmos.x264-NOGRP

seeders: 1425
leechers: 197
updated:
Added by prudence25 in Movies > HD

Download Fast Safe Anonymous
movies, software, shows...
Summary:

After learning that their younger sibling escaped an earlier kidnapping attempt that also killed their parents, two estranged sisters must join forces to rescue her from a group of bloodthirsty vampires. Out for revenge and control of a vampirism vaccine, Thorn and his band of the undead soon learn that they messed with the wrong family.

Files

Vengeance.2022.1080p.WEBRip.DDP5.1.Atmos.x264-NOGRP
  • RARBG.txt (0.0 KB)
  • Vengeance.2022.1080p.WEBRip.DDP5.1.Atmos.x264-NOGRP.mkv (5.7 GB)

Description



https://www.imdb.com/title/tt11976532/





Video
ID : 1
Format : AVC
Format/Info : Advanced Video Codec
Format profile : [email protected]
Format settings : CABAC / 5 Ref Frames
Format settings, CABAC : Yes
Format settings, Reference frames : 5 frames
Codec ID : V_MPEG4/ISO/AVC
Duration : 1 h 48 min
Bit rate : 6 722 kb/s
Width : 1 920 pixels
Height : 802 pixels
Display aspect ratio : 2.40:1
Frame rate mode : Constant
Frame rate : 23.976 (24000/1001) FPS
Color space : YUV
Chroma subsampling : 4:2:0
Bit depth : 8 bits
Scan type : Progressive
Bits/(Pixel*Frame) : 0.182
Stream size : 5.07 GiB (90%)
Default : Yes
Forced : No
Color range : Limited
Color primaries : BT.709
Transfer characteristics : BT.709
Matrix coefficients : BT.709

Audio
ID : 2
Format : E-AC-3 JOC
Format/Info : Enhanced AC-3 with Joint Object Coding
Commercial name : Dolby Digital Plus with Dolby Atmos
Codec ID : A_EAC3
Duration : 1 h 48 min
Bit rate mode : Constant
Bit rate : 768 kb/s
Channel(s) : 6 channels
Channel layout : L R C LFE Ls Rs
Sampling rate : 48.0 kHz
Frame rate : 31.250 FPS (1536 SPF)
Compression mode : Lossy
Stream size : 594 MiB (10%)
Language : English
Service kind : Complete Main
Default : Yes
Forced : No
Complexity index : 16
Number of dynamic objects : 15
Bed channel count : 1 channel
Bed channel configuration : LFE

Text #1
ID : 3
Format : UTF-8
Codec ID : S_TEXT/UTF8
Codec ID/Info : UTF-8 Plain Text
Duration : 1 h 41 min
Bit rate : 86 b/s
Frame rate : 0.355 FPS
Count of elements : 2161
Stream size : 64.2 KiB (0%)
Language : English
Default : Yes
Forced : No

Text #2
ID : 4
Format : UTF-8
Codec ID : S_TEXT/UTF8
Codec ID/Info : UTF-8 Plain Text
Duration : 1 h 47 min
Bit rate : 89 b/s
Frame rate : 0.367 FPS
Count of elements : 2364
Stream size : 70.5 KiB (0%)
Title : SDH
Language : English
Default : No
Forced : No

Related Torrents

torrent name size uploader age seed leech
2.1 GB prudence25 1
month
827 118
796 MB TGxGoodies 1
month
444 62
795.6 MB TGxGoodies 3
months
184 25
1.4 GB TGxGoodies 18
days
154 11
1.4 GB TGxGoodies 1
month
130 21


Download torrent
5.7 GB
seeders:1425
leechers:197
Vengeance.2022.1080p.WEBRip.DDP5.1.Atmos.x264-NOGRP


Trackers

tracker name
http://tracker.trackerfix.com:80/announce
udp://9.rarbg.me:2890/announce
udp://9.rarbg.to:2880/announce
udp://tracker.slowcheetah.org:14720/announce
udp://tracker.tallpenguin.org:15730/announce
µTorrent compatible trackers list

Download torrent
5.7 GB
seeders:1425
leechers:197
Vengeance.2022.1080p.WEBRip.DDP5.1.Atmos.x264-NOGRP


Torrent hash: 9D4E657C1BDE46B6DD9FE9F3FECECF6C1B28F890