War (2007) 1080p 10bit Bluray x265 HEVC [Org DD 5.1 Hindi + DD 5.1 English] ESubs ~ TombDoc

seeders: 34
leechers: 32
updated:

Download Fast Safe Anonymous
movies, software, shows...
Summary:

FBI agent Jack Crawford is out for revenge when his partner is killed and all clues point to the mysterious assassin Rogue. But when Rogue turns up years later to take care of some unfinished business, he triggers a violent clash of rival gangs. Will the truth come out before it's too late? And when the dust settles, who will remain standing?

Files

War (2007) 1080p 10bit Bluray x265 HEVC [Org DD 5.1 Hindi + DD 5.1 English] ESubs ~ TombDoc
  • War (2007) 1080p 10bit Bluray x265 HEVC [Org DD 5.1 Hindi + DD 5.1 English] ESubs ~ TombDoc.mkv (3.9 GB)
  • War.jpg (439.9 KB)

Description



Vengeance is the ultimate weapon...




War (2007) 1080p 10bit Bluray x265 HEVC [Org DD 5.1 Hindi + DD 5.1 English] ESubs ~ TombDoc


Code:

Format : Matroska
Format version : Version 4
File size : 3.87 GiB
Duration : 1 h 43 min
Overall bit rate : 5 378 kb/s

Video
ID : 1
Format : HEVC
Format/Info : High Efficiency Video Coding
Format profile : Main [email protected]@Main
Codec ID : V_MPEGH/ISO/HEVC
Duration : 1 h 43 min
Bit rate : 3 985 kb/s
Width : 1 920 pixels
Height : 800 pixels
Display aspect ratio : 2.40:1
Frame rate mode : Constant
Frame rate : 23.976 (24000/1001) FPS
Color space : YUV
Chroma subsampling : 4:2:0
Bit depth : 10 bits
Bits/(Pixel*Frame) : 0.108
Stream size : 2.87 GiB (74%)
Writing library : x265 3.3+2-gbe2d82093:[Windows][GCC 9.2.0][64 bit] 10bit
Encoding settings : cpuid=1111039 / frame-threads=4 / numa-pools=16 / wpp / no-pmode / no-pme / no-psnr / no-ssim / log-level=2 / input-csp=1 / input-res=1920x800 / interlace=0 / total-frames=148177 / level-idc=0 / high-tier=1 / uhd-bd=0 / ref=5 / no-allow-non-conformance / no-repeat-headers / annexb / no-aud / no-hrd / info / hash=0 / no-temporal-layers / open-gop / min-keyint=23 / keyint=250 / gop-lookahead=0 / bframes=8 / b-adapt=2 / b-pyramid / bframe-bias=0 / rc-lookahead=80 / lookahead-slices=4 / scenecut=40 / hist-scenecut=0 / radl=0 / no-splice / no-intra-refresh / ctu=64 / min-cu-size=8 / rect / amp / max-tu-size=32 / tu-inter-depth=1 / tu-intra-depth=1 / limit-tu=0 / rdoq-level=2 / dynamic-rd=0.00 / ssim-rd / signhide / no-tskip / nr-intra=0 / nr-inter=0 / no-constrained-intra / strong-intra-smoothing / max-merge=5 / limit-refs=3 / limit-modes / me=3 / subme=5 / merange=57 / temporal-mvp / no-frame-dup / no-hme / weightp / no-weightb / no-analyze-src-pics / deblock=0:0 / sao / no-sao-non-deblock / rd=4 / selective-sao=4 / no-early-skip / rskip / no-fast-intra / no-tskip-fast / no-cu-lossless / no-b-intra / no-splitrd-skip / rdpenalty=0 / psy-rd=0.00 / psy-rdoq=1.50 / no-rd-refine / no-lossless / cbqpoffs=0 / crqpoffs=0 / rc=abr / bitrate=4000 / qcomp=0.60 / qpstep=4 / stats-write=0 / stats-read=2 / cplxblur=20.0 / qblur=0.5 / ipratio=1.40 / pbratio=1.30 / aq-mode=4 / aq-strength=1.00 / cutree / zone-count=0 / no-strict-cbr / qg-size=32 / no-rc-grain / qpmax=69 / qpmin=0 / no-const-vbv / sar=0 / overscan=0 / videoformat=5 / range=0 / colorprim=1 / transfer=1 / colormatrix=1 / chromaloc=0 / display-window=0 / cll=0,0 / min-luma=0 / max-luma=1023 / log2-max-poc-lsb=8 / vui-timing-info / vui-hrd-info / slices=1 / no-opt-qp-pps / no-opt-ref-list-length-pps / no-multi-pass-opt-rps / scenecut-bias=0.05 / hist-threshold=0.01 / no-opt-cu-delta-qp / aq-motion / no-hdr10 / no-hdr10-opt / no-dhdr10-opt / no-idr-recovery-sei / analysis-reuse-level=0 / analysis-save-reuse-level=0 / analysis-load-reuse-level=0 / scale-factor=0 / refine-intra=0 / refine-inter=0 / refine-mv=1 / refine-ctu-distortion=0 / no-limit-sao / ctu-info=0 / no-lowpass-dct / refine-analysis-type=0 / copy-pic=1 / max-ausize-factor=1.0 / no-dynamic-refine / no-single-sei / hevc-aq / no-svt / no-field / qp-adaptation-range=1.00 / no-scenecut-aware-qpconformance-window-offsets / right=0 / bottom=0
Default : Yes
Forced : No
Color range : Limited
Color primaries : BT.709
Transfer characteristics : BT.709
Matrix coefficients : BT.709

Audio #1
ID : 2
Format : AC-3
Format/Info : Audio Coding 3
Commercial name : Dolby Digital
Codec ID : A_AC3
Duration : 1 h 42 min
Bit rate mode : Constant
Bit rate : 448 kb/s
Channel(s) : 6 channels
Channel layout : L R C LFE Ls Rs
Sampling rate : 48.0 kHz
Frame rate : 31.250 FPS (1536 SPF)
Compression mode : Lossy
Delay relative to video : 1 s 81 ms
Stream size : 330 MiB (8%)
Title : Org DvD DD 5.1 448Kbps ~ TombDoc
Language : Hindi
Service kind : Complete Main
Default : Yes
Forced : Yes

Audio #2
ID : 3
Format : AC-3
Format/Info : Audio Coding 3
Commercial name : Dolby Digital
Codec ID : A_AC3
Duration : 1 h 43 min
Bit rate mode : Constant
Bit rate : 448 kb/s
Channel(s) : 6 channels
Channel layout : L R C LFE Ls Rs
Sampling rate : 48.0 kHz
Frame rate : 31.250 FPS (1536 SPF)
Compression mode : Lossy
Stream size : 330 MiB (8%)
Title : DD 5.1 English
Language : English
Service kind : Complete Main
Default : No
Forced : No

Text #1
ID : 4
Format : PGS
Muxing mode : zlib
Codec ID : S_HDMV/PGS
Codec ID/Info : Picture based subtitle format used on BDs/HD-DVDs
Duration : 1 h 42 min
Bit rate : 32.0 kb/s
Count of elements : 1784
Stream size : 23.4 MiB (1%)
Title : Eng BD-PGS
Language : English
Default : Yes
Forced : Yes

Text #2
ID : 5
Format : PGS
Muxing mode : zlib
Codec ID : S_HDMV/PGS
Codec ID/Info : Picture based subtitle format used on BDs/HD-DVDs
Duration : 1 h 33 min
Bit rate : 68.6 kb/s
Count of elements : 1142
Stream size : 46.0 MiB (1%)
Title : Commentary
Language : English
Default : No
Forced : No

Text #3
ID : 6
Format : PGS
Muxing mode : zlib
Codec ID : S_HDMV/PGS
Codec ID/Info : Picture based subtitle format used on BDs/HD-DVDs
Duration : 1 h 37 min
Bit rate : 747 kb/s
Count of elements : 6947
Stream size : 521 MiB (13%)
Title : Commentary 2
Language : English
Default : No
Forced : No

Menu
00:00:00.000 : en:Chapter 01
00:08:00.063 : en:Chapter 02
00:11:57.216 : en:Chapter 03
00:18:35.531 : en:Chapter 04
00:24:18.999 : en:Chapter 05
00:29:22.427 : en:Chapter 06
00:39:51.556 : en:Chapter 07
00:47:45.488 : en:Chapter 08
00:54:25.721 : en:Chapter 09
00:58:10.195 : en:Chapter 10
01:02:45.720 : en:Chapter 11
01:08:18.511 : en:Chapter 12
01:15:43.205 : en:Chapter 13
01:23:56.740 : en:Chapter 14
01:31:33.321 : en:Chapter 15
01:36:55.518 : en:Chapter 16



Code:

Source: War 2007 Blu-ray 1080p AVC LPCM 7 1 tater44-BluRG




Related Torrents

torrent name size uploader age seed leech
998.8 MB mazemaze16 1
year
112 11
2.5 GB nickarad 2
years
49 13
694.8 MB MAQMax 2
years
32 4
603.7 MB CharlieJade 6
years
28 6
1.1 GB PENDUDESI 2
years
27 14


Download torrent
3.9 GB
seeders:34
leechers:32
War (2007) 1080p 10bit Bluray x265 HEVC [Org DD 5.1 Hindi + DD 5.1 English] ESubs ~ TombDoc


Trackers

tracker name
udp://tracker.coppersurfer.tk:6969/announce
udp://tracker.opentrackr.org:1337/announce
udp://tracker.leechers-paradise.org:6969/announce
http://tracker.internetwarriors.net:1337/announce
udp://p4p.arenabg.com:1337/announce
udp://9.rarbg.to:2710/announce
udp://9.rarbg.me:2710/announce
udp://exodus.desync.com:6969/announce
udp://tracker.cyberia.is:6969/announce
udp://open.stealth.si:80/announce
udp://retracker.lanta-net.ru:2710/announce
udp://tracker.tiny-vps.com:6969/announce
udp://tracker.torrent.eu.org:451/announce
http://tracker4.itzmx.com:2710/announce
udp://tracker3.itzmx.com:6961/announce
http://tracker1.itzmx.com:8080/announce
udp://tracker.moeking.me:6969/announce
udp://bt1.archive.org:6969/announce
udp://ipv4.tracker.harry.lu:80/announce
udp://bt2.archive.org:6969/announce
µTorrent compatible trackers list

Download torrent
3.9 GB
seeders:34
leechers:32
War (2007) 1080p 10bit Bluray x265 HEVC [Org DD 5.1 Hindi + DD 5.1 English] ESubs ~ TombDoc


Torrent hash: 22975625784CF323C8025D0C35B3CEE9AFE171BE