What.We.Do.in.the.Shadows.S04E07.PROPER.1080p.WEB.h264-KOGi

seeders: 689
leechers: 122
updated:
Added by prudence25 in TV > HD

Download Fast Safe Anonymous
movies, software, shows...

Files

What.We.Do.in.the.Shadows.S04E07.PROPER.1080p.WEB.h264-KOGi[rarbg]
  • RARBG.txt (0.0 KB)
  • RARBG_DO_NOT_MIRROR.exe (0.1 KB)
  • What.We.Do.in.the.Shadows.S04E07.PROPER.1080p.WEB.h264-KOGi.mkv (829.9 MB)
  • what.we.do.in.the.shadows.s04e07.proper.1080p.web.h264-kogi.nfo (4.8 KB)

Description



Video
ID : 1
Format : AVC
Format/Info : Advanced Video Codec
Format profile : [email protected]
Format settings : CABAC / 4 Ref Frames
Format settings, CABAC : Yes
Format settings, Reference frames : 4 frames
Codec ID : V_MPEG4/ISO/AVC
Duration : 26 min 20 s
Bit rate : 4 146 kb/s
Width : 1 920 pixels
Height : 1 080 pixels
Display aspect ratio : 16:9
Frame rate mode : Constant
Frame rate : 23.976 (24000/1001) FPS
Color space : YUV
Chroma subsampling : 4:2:0
Bit depth : 8 bits
Scan type : Progressive
Bits/(Pixel*Frame) : 0.083
Stream size : 781 MiB (94%)
Language : English
Default : Yes
Forced : No

Audio
ID : 2
Format : E-AC-3
Format/Info : Enhanced AC-3
Commercial name : Dolby Digital Plus
Codec ID : A_EAC3
Duration : 26 min 20 s
Bit rate mode : Constant
Bit rate : 256 kb/s
Channel(s) : 6 channels
Channel layout : L R C LFE Ls Rs
Sampling rate : 48.0 kHz
Frame rate : 31.250 FPS (1536 SPF)
Compression mode : Lossy
Delay relative to video : 6 ms
Stream size : 48.2 MiB (6%)
Language : English
Service kind : Complete Main
Default : Yes
Forced : No

Text
ID : 3
Format : UTF-8
Codec ID : S_TEXT/UTF8
Codec ID/Info : UTF-8 Plain Text
Duration : 26 min 17 s
Bit rate : 124 b/s
Count of elements : 713
Stream size : 24.0 KiB (0%)
Title : English
Language : English
Default : No
Forced : No



Download torrent
829.9 MB
seeders:689
leechers:122
What.We.Do.in.the.Shadows.S04E07.PROPER.1080p.WEB.h264-KOGi


Trackers

tracker name
http://tracker.trackerfix.com:80/announce
udp://9.rarbg.me:2880/announce
udp://9.rarbg.to:2730/announce
udp://tracker.slowcheetah.org:14750/announce
udp://tracker.tallpenguin.org:15710/announce
µTorrent compatible trackers list

Download torrent
829.9 MB
seeders:689
leechers:122
What.We.Do.in.the.Shadows.S04E07.PROPER.1080p.WEB.h264-KOGi


Torrent hash: 92E93247FB3B1A25E067DCB12514FE22DC28E995